.
Авторизация | Регистрация
» » Вегас / Vegas (2012) WEB-DLRip | Amedia скачать через торрент бесплатно




    Вегас / Vegas (2012) WEB-DLRip | Amedia скачать через торрент бесплатно

    Опубликовал: Админ | Дата: 27-02-2015, 11:09 | Просмотров: 487



    Детально о кино
    Русское название: Вегас
    Русское название в мировом прокате: Vegas
    Создали в: 2012
    Категория жанра: боевик, драма, криминал, детектив, вестерн
    Главный режиссер: Мэтт Эрл Бисли, Дуан Кларк, Роксанн Доусон
    Актеры: Деннис Куэйд, Майкл Чиклис, Кэрри-Энн Мосс, Тейлор Хэндли, Джейсон О’Мара, Сара Джонс, Джеймс Руссо, Сонни Маринелли, Айми Гарсиа, Майкл Рейли Бурк

    Сюжет фильма:
    Фильм снят по реальным событиям, о ковбое по имени Ральф Лэмб, в 1960-м году ставшем главным шерифом Лас-Вегаса и прослужившем на этом посту 18 лет. При Лэмбе был сформирован полицейский департамент города. Он противостоял мафии, мото-банде Ангелы ада и прославился тем, что ни разу ни в кого не выстрелил.



    Снималось в: США
    Киностудия: CBS Television Studios, Happy Valley Films, Tree Line Films, Arthur Sarkissian Productions
    Время просмотра: ~00:45:00 серия
    Перевод текста: Профессиональный (многоголосый закадровый) Novamedia по заказу Amedia
    Автор перевода: Максим Панегин
    Озвучка: Илья Исаев, Андрей Бархударов, Алексей Войтюк, Александр Расков, Владимир Рыбальченко, Елена Тёплая
    Главный режиссёр озвучки: Елена Шульга
    Работа со звуком: xironfs
    Рип: xironfs

    Файл
    Кодек для видео: XviD / MP3
    Качество фильма: WEB-DLRip
    Информация о видео: MPEG4, XviD, 720x400 (16:9), 23.976 fps, 2 000 Kbps (0.290 bit/pixel)
    Информация о звуке:
    Аудио #1: Rus AC-3, 48.0 KHz, 2 ch, 192 Kbps, CBR
    Аудио #2: Eng AC-3, 48.0 KHz, 2 ch, 192 Kbps, CBR

    Скриншоты для ознакомления
    Скриншоты для ознакомления (повтор)
    MediaInfo
    Полное имя : /Vegas Season 1 CasStudio/Vegas.s01e01.rus.eng.CasStudio.avi
    Формат : AVI
    Формат/Информация : Audio Video Interleave
    Размер файла : 779 Мбайт
    Продолжительность : 45 м.
    Общий поток : 2398 Кбит/сек
    Программа кодирования : VirtualDubModRus 1.5.10.2 (build 2542/release)
    Библиотека кодирования : VirtualDubMod build 2542/release

    Видео
    Идентификатор : 0
    Формат : MPEG-4 Visual
    Профиль формата : Advanced Simple@L5
    Параметр BVOP формата : 2
    Параметр QPel формата : Нет
    Параметр GMC формата : Без точки перехода
    Параметр матрицы формата : Default (MPEG)
    Идентификатор кодека : XVID
    Идентификатор кодека/Подсказка : XviD
    Продолжительность : 45 м.
    Битрейт : 2000 Кбит/сек
    Ширина : 720 пикс.
    Высота : 400 пикс.
    Соотношение сторон : 16:9
    Частота кадров : 23,976 кадр/сек
    Цветовое пространство : YUV
    Подвыборка цветности : 4:2:0
    Битовая глубина : 8 бит
    Тип развёртки : Прогрессивная
    Метод сжатия : С потерями
    Бит/(Пиксели*Кадры) : 0.290
    Размер потока : 649 Мбайт (83%)
    Библиотека кодирования : XviD 65

    Аудио #1
    Идентификатор : 1
    Формат : AC-3
    Формат/Информация : Audio Coding 3
    Расширение режима : CM (complete main)
    Идентификатор кодека : 2000
    Продолжительность : 45 м.
    Вид битрейта : Постоянный
    Битрейт : 192 Кбит/сек
    Каналы : 2 канала
    Расположение каналов : Front: L R
    Частота : 48,0 КГц
    Битовая глубина : 16 бит
    Метод сжатия : С потерями
    Размер потока : 62,3 Мбайт (8%)
    Выравнивание : Разделение по промежуткам
    Продолжительность промежутка : 42 мс. (1,00 видеокадр)
    Время предзагрузки промежутка : 500 ms

    Аудио #2
    Идентификатор : 2
    Формат : AC-3
    Формат/Информация : Audio Coding 3
    Расширение режима : CM (complete main)
    Идентификатор кодека : 2000
    Продолжительность : 45 м.
    Вид битрейта : Постоянный
    Битрейт : 192 Кбит/сек
    Каналы : 2 канала
    Расположение каналов : Front: L R
    Частота : 48,0 КГц
    Битовая глубина : 16 бит
    Метод сжатия : С потерями
    Размер потока : 62,3 Мбайт (8%)
    Выравнивание : Разделение по промежуткам
    Продолжительность промежутка : 42 мс. (1,00 видеокадр)
    Время предзагрузки промежутка : 500 ms
    Внимание! Раздача ведётся путём добавления новых серий
    Внимание! Раздача ведётся путём добавления новых серий; при каждом добавлении создётся новый торрент. Чтобы начать докачку новой серии, пользователям необходимо сделать следующее:
    Остановить скачивание.
    Удалить старый торрент у себя из клиента (старые серии удалять не надо).
    Скачать новый торрент и запустить его у себя в клиенте вместо старого, при этом указать клиенту путь в старую папку куда и должно происходить скачивание новых серий.

    Ваш клиент при этом должен произвести хеширование (проверку) старой папки (если не производит сам - помогите ему сделать это), и будет докачивать только те серии которых у вас ещё нет. Старые серии при этом не удаляются, а продолжают раздаваться!
    Eсли вы уже удалили старые серии, то предотвратить повторную закачку старых серий можно, отжав галочку в соответсвующих местах при запуске нового торрента. По возможности, желательно не удалять старые серии как можно дольше чтобы релизёр не столько продолжал раздавать старые серии, а смог сконцентрироваться на новых.

    Размер скачиваемого торрента: 12.32 GB (13233383424 Bytes)

    Вегас / Vegas (2012) WEB-DLRip | Amedia скачать через торрент бесплатно
    загрузка...
    Рейтинг →
     (голосов: 1, оценка 5/5, голосовать можно 1 раз )

    Другие торренты по теме:



      Комментарии (0):

      Информация

      Информация

        Посетители, находящиеся в группе Гости, не могут оставлять комментарии в данной новости.

        ↓ Меню



        ↓ Опрос

        А Вы добавили сайт в закладки?
        Да
        Не


        Top 10 за неделю (Фильмы)