.
Авторизация | Регистрация
» » Умница Уилл Хантинг / Good Will Hunting (1997) BDRip от New-Team торрент скачать бесплатно




    Умница Уилл Хантинг / Good Will Hunting (1997) BDRip от New-Team торрент скачать бесплатно

    Опубликовал: Админ | Дата: 27-02-2015, 11:09 | Просмотров: 276


    Снималось в: США
    Создали в: Be Gentlemen Limited Partnership, Lawrence Bender Productions, Miramax Films
    Категория жанра: драма
    Создали в: 1997
    Время просмотра: 02:06:33

    Перевод текста: Профессиональный (Двухголосый, закадровый) (West)
    Оригинальная аудиодорожка: нет
    Субтитры подготовлены: нет

    Главный режиссер: Гас Ван Сэнт / Gus Van Sant

    Актеры:
    Робин Уильямс, Мэтт Дэймон, Бен Аффлек, Стеллан Скарсгард, Минни Драйвер, Кейси Аффлек, Коул Хаузер, Джон Майтон, Рэйчел Маджоровски, Коллин МакКоли...

    Сюжет:
    Уилл Хантинг — 20-летний вундеркинд из Бостона, который то и дело ввязывается в неприятные истории. И когда полиция арестовывает его за очередную драку, профессор математики берет его под свою опеку, но при одном условии: Уилл должен пройти курс психотерапии. Сеансы перевоспитания, начавшиеся с недоверия, постепенно перерастают в дружбу между Уиллом и его наставником…




    Исходник: BDRemux 1080p
    Тип релиза: BDRip
    Контейнер: AVI

    Информация о видео: 592x320 (1,850:1), 23,976 fps, XviD ~ 689 kbps avg, 0.152 bit/pixel
    Информация о звуке: 48 kHz, MP3 2.0, 128 kbps

    Раздача от:
    MediaInfo

    Общее
    Полное имя : Umnica.Uill.Hanting.1997.BDRip-745_New-team_by_AVP_Studio.avi
    Формат : AVI
    Формат/Информация : Audio Video Interleave
    Размер файла : 745 Мбайт
    Продолжительность : 2 ч. 6 м.
    Общий поток : 826 Кбит/сек
    Программа кодирования : VirtualDubModRus 1.5.10.2 (build 2542/release)
    Библиотека кодирования : VirtualDubMod build 2542/release

    Видео
    Идентификатор : 0
    Формат : MPEG-4 Visual
    Профиль формата : Advanced Simple@L5
    Параметр BVOP формата : 1
    Параметр QPel формата : Нет
    Параметр GMC формата : Без точки перехода
    Параметр матрицы формата : Выборочная
    Идентификатор кодека : XVID
    Идентификатор кодека/Подсказка : XviD
    Продолжительность : 2 ч. 6 м.
    Битрейт : 689 Кбит/сек
    Ширина : 592 пикселя
    Высота : 320 пикселей
    Соотношение сторон : 1,850
    Частота кадров : 23,976 кадра/сек
    Цветовое пространство : YUV
    Субдискретизация насыщенности : 4:2:0
    Битовая глубина : 8 бит
    Тип развёртки : Прогрессивная
    Метод сжатия : С потерями
    Бит/(Пиксели*Кадры) : 0.152
    Размер потока : 621 Мбайт (83%)
    Библиотека кодирования : XviD 73

    Аудио
    Идентификатор : 1
    Формат : MPEG Audio
    Версия формата : Version 1
    Профиль формата : Layer 3
    Идентификатор кодека : 55
    Идентификатор кодека/Подсказка : MP3
    Продолжительность : 2 ч. 6 м.
    Вид битрейта : Постоянный
    Битрейт : 128 Кбит/сек
    Каналы : 2 канала
    Частота : 48,0 КГц
    Метод сжатия : С потерями
    Размер потока : 115 Мбайт (15%)
    Выравнивание : Соединение по промежуткам
    Продолжительность промежутка : 42 мс. (1,00 видеокадр)
    Время предзагрузки промежутка : 504 мс.
    Библиотека кодирования : LAME3.99r
    Залил: AVPStudio
    Размер скачиваемого торрента: 744.76 MB (780939264 Bytes)


    Умница Уилл Хантинг / Good Will Hunting (1997) BDRip от New-Team торрент скачать бесплатно
    загрузка...
    Рейтинг →
     (голосов: 1, оценка 4/5, голосовать можно 1 раз )

    Другие торренты по теме:

  • Умница Уилл Хантинг / Good Will Hunting (1997) BDRip 1080p от Freeisland торрент скачать бесплатно
  • Умница Уилл Хантинг / Good Will Hunting (1997) BDRip-AVC от Rulya74 торрент скачать бесплатно
  • Умница Уилл Хантинг / Good Will Hunting (1997) BDRip-AVC от New-Team скачать через торрент бесплатно
  • Умница Уилл Хантинг / Good Will Hunting (1997) BDRip-AVC | iPad | P скачать через торрент бесплатно
  • Умница Уилл Хантинг / Good Will Hunting (1997) BDRip 720p от Leonardo and Scarabey скачать через торрент бесплатно
  • Умница Уилл Хантинг / Good Will Hunting (1997) BDRip от MediaClub | КПК скачать торрент бесплатно


    • Комментарии (0):

      Информация

      Информация

        Посетители, находящиеся в группе Гости, не могут оставлять комментарии в данной новости.

        ↓ Меню



        ↓ Опрос

        А Вы добавили сайт в закладки?
        Да
        Не


        Top 10 за неделю (Фильмы)