.
Авторизация | Регистрация
» » Тройной форсаж: Токийский Дрифт / The Fast and the Furious: Tokyo Drift (2006) DVD5 торрент скачать бесплатно




    Тройной форсаж: Токийский Дрифт / The Fast and the Furious: Tokyo Drift (2006) DVD5 торрент скачать бесплатно

    Опубликовал: Админ | Дата: 27-02-2015, 11:09 | Просмотров: 341



    Создали в: 2006
    Создали в: США, Германия / Universal Pictures, Original Film, MP Munich Pape Filmproductions, Relativity Media
    Категория жанра: Боевик, триллер, драма, криминал
    Перевод текста: Дублированный лицензия
    Субтитры: Вшитые отключаемые
    Язык субтитров: Русский, английский

    Главный режиссер: Джастин Лин
    Актеры: Лукас Блэк, Бау Вау, Брайан Ти, Санг Кенг, Никки Гриффин, Винсент Лареска, Линда Бойд, Брайан Гудман, Натали Келли, Леонардо Нам, Сонни Чиба, Вин Дизель

    Сюжет фильма:
    Шон Босуэлл — одинокий парень, который хочет казаться профи уличных гонок. Он бесшабашно гоняется по улицам города, пытаясь убежать от жизненных невзгод и наживая себе врагов среди местных властей. Когда Шону грозит тюрьма, его от греха подальше отсылают к отцу — профессиональному военному, который служит на военной базе в Японии.

    В незнакомой стране, живущей по своим законам, Шон чувствует себя еще большим изгоем. Однако вскоре его американский приятель Твинки знакомит его с миром подпольного дрифт-рейсинга. Раньше Шон просто тупо гонялся по улицам, а здесь перед ним открылся целый мир своеобразного искусства из металла и резины, дороги которого оказались невообразимо круты на поворотах…

    Дата мировой премьеры: 4 июня 2006
    Дата российской премьеры: 29 июня 2006, UIP
    Дата выхода DVD релиза: 25 сентября 2008, Мьюзик-Трейд
    Дата выхода Blu-Ray релиза: 4 августа 2009, Юниверсал Пикчерс Рус



    Время просмотра: 01:44:08
    Качество фильма видео: DVD5

    Информация о видео: MPEG-2, 720x480@853x480 (NTSC 16:9), ~4674 Кбит/сек
    Информация о звуке 1: AC3 5.1, 448 Кбит/сек Русский - дублированный
    Информация о звуке 2: AC3 5.1, 448 Кбит/сек Английский - оригинал
    DVDInfo:
    Title: The Fast and the Furious. Tokyo Drift (2006) DVD5 BD - DVD
    Size: 4.36 Gb ( 4 567 692,00 KBytes ) - DVD-5
    Enabled regions: 1, 2, 3, 4, 5, 6, 7, 8

    VTS_01 :
    Play Length: 01:44:08
    Video: NTSC 16:9 (720x480) VBR, Auto Letterboxed
    Audio:
    Russian (Dolby AC3, 6 ch)
    English (Dolby AC3, 6 ch)
    Subtitles:
    Russian
    Russian
    English

    * Menus Information *

    VIDEO_TS Menu
    Video:
    NTSC 16:9 (720x480) VBR
    Auto Letterboxed
    Audio:
    Not specified (Dolby AC3, 6 ch)
    Russian Language Unit :
    Title Menu

    VTS_01 Menu
    Video:
    NTSC 16:9 (720x480) VBR
    Auto Letterboxed
    Audio:
    Not specified (Dolby AC3, 6 ch)
    Russian Language Unit :
    Root Menu
    Audio Menu
    Chapter (PTT) Menu
    MediaInfo:
    Общее
    Полное имя : D:ФИЛЬМЫThe Fast and the Furious. Tokyo Drift (2006) DVD5 BD - DVDVIDEO_TSVTS_01_1.VOB
    Формат : MPEG-PS
    Размер файла : 1024 Мбайт
    Продолжительность : 25 м.
    Режим общего битрейта : Переменный
    Общий поток : 5683 Кбит/сек

    Видео
    Идентификатор : 224 (0xE0)
    Формат : MPEG Video
    Версия формата : Version 2
    Профиль формата : Main@Main
    Параметр BVOP формата : Да
    Параметр матрицы формата : Выборочная
    Параметр GOP формата : Variable
    Продолжительность : 25 м.
    Вид битрейта : Переменный
    Битрейт : 4674 Кбит/сек
    Максимальный битрейт : 9800 Кбит/сек
    Ширина : 720 пикселей
    Высота : 480 пикселей
    Соотношение сторон : 16:9
    Частота кадров : 23,976 кадра/сек
    Стандарт вещания : NTSC
    Цветовое пространство : YUV
    Субдискретизация насыщенности : 4:2:0
    Битовая глубина : 8 бит
    Тип развёртки : Прогрессивная
    Порядок развёртки : 2:3 Pulldown
    Метод сжатия : С потерями
    Бит/(Пиксели*Кадры) : 0.564
    Временной код первого кадра : 01:00:00:00
    Оригинал временного кода : Group of pictures t_head
    Размер потока : 842 Мбайт (82%)

    Аудио #1
    Идентификатор : 189 (0xBD)-128 (0x80)
    Формат : AC-3
    Формат/Информация : Audio Coding 3
    Расширение режима : CM (complete main)
    Параметр Endianness формата : Big
    Режим смешивания : DVD-Video
    Продолжительность : 25 м.
    Вид битрейта : Постоянный
    Битрейт : 448 Кбит/сек
    Каналы : 6 каналов
    Расположение каналов : Front: L C R, Side: L R, LFE
    Частота : 48,0 КГц
    Битовая глубина : 16 бит
    Метод сжатия : С потерями
    Размер потока : 80,7 Мбайт (8%)

    Аудио #2
    Идентификатор : 189 (0xBD)-129 (0x81)
    Формат : AC-3
    Формат/Информация : Audio Coding 3
    Расширение режима : CM (complete main)
    Параметр Endianness формата : Big
    Режим смешивания : DVD-Video
    Продолжительность : 25 м.
    Вид битрейта : Постоянный
    Битрейт : 448 Кбит/сек
    Каналы : 6 каналов
    Расположение каналов : Front: L C R, Side: L R, LFE
    Частота : 48,0 КГц
    Битовая глубина : 16 бит
    Метод сжатия : С потерями
    Размер потока : 80,7 Мбайт (8%)

    Текст #1
    Идентификатор : 189 (0xBD)-33 (0x21)
    Формат : RLE
    Формат/Информация : Run-length encoding
    Режим смешивания : DVD-Video

    Текст #2
    Идентификатор : 189 (0xBD)-34 (0x22)
    Формат : RLE
    Формат/Информация : Run-length encoding
    Режим смешивания : DVD-Video

    Меню

    Доп. информация:
    Исходником данного DVD послужил Blu-Ray. Субтитры взяты с того же торрент сайта. Меню создано на основе Blu-Ray. Обработка видео проходила с помощью CCE SP3 в 3 прохода.
    Бриф по изготовлению DVD:
    видео - CCE SP3, AviSynth, DGDecodeNV
    звук - Tranzcode, Sonic Foundry Soft Encode
    меню - Photoshop, DVD Architect Pro
    сборка и разборка материалов - tsMuxer, DVDReMakePro, MuxMan
    Скриншоты для ознакомления меню:

    Скриншоты для ознакомления:

    За DVD5 спасибо большое alut
    Залил: Саша 1992
    Размер скачиваемого торрента: 4.36 GB (4677316608 Bytes)

    Тройной форсаж: Токийский Дрифт / The Fast and the Furious: Tokyo Drift (2006) DVD5 торрент скачать бесплатно
    загрузка...
    Рейтинг →
     (голосов: 1, оценка 4/5, голосовать можно 1 раз )

    Другие торренты по теме:

  • Тройной форсаж: Токийский Дрифт / The Fast and the Furious: Tokyo Drift (2006) BDRip-AVC | iPad торрент скачать бесплатно
  • Тройной форсаж: Токийский Дрифт / The Fast and the Furious: Tokyo Drift (2006) BDRip-AVC от HQ-ViDEO скачать через торрент бесплатно
  • Тройной форсаж: Токийский Дрифт / The Fast and the Furious: Tokyo Drift (2006) HDRip от Sanjar NeoJet | КПК торрент скачать бесплатно
  • Тройной форсаж: Токийский Дрифт / The Fast and the Furious: Tokyo Drift (2006) BDRip 720p | D торрент скачать бесплатно
  • Тройной форсаж: Токийский дрифт / The Fast and the Furious: Tokyo Drift (2006) BDRip 720p от NNNB | 60 fps скачать через торрент бесплатно
  • Тройной форсаж: Токийский Дрифт / The Fast and the Furious: Tokyo Drift (2006) HDRip-AVC | D скачать торрент бесплатно


    • Комментарии (0):

      Информация

      Информация

        Посетители, находящиеся в группе Гости, не могут оставлять комментарии в данной новости.

        ↓ Меню



        ↓ Опрос

        А Вы добавили сайт в закладки?
        Да
        Не


        Top 10 за неделю (Фильмы)