.
Авторизация | Регистрация
Хочешь лучшие торренты? Добавь свой email!
Добавить




Форсаж 4 / Fast Furious (2009) DVD5 торрент скачать бесплатно

Опубликовал: Админ | Дата: 27-02-2015, 11:09 | Просмотров: 427



Создали в: 2009
Создали в: США / Neal H. Moritz Productions, One Race Productions, Original Film, Relativity Media, Universal Pictures
Категория жанра: Криминал, боевик, триллер, драма
Перевод текста: Дублированный лицензия
Субтитры: Вшитые отключаемые
Язык субтитров: Русский, английский

Главный режиссер: Джастин Лин
Актеры: Вин Дизель, Пол Уокер, Джордана Брюстер, Мишель Родригес, Джон Ортиз, Лас Алонсо, Галь Гадот, Джек Конли, Ши Уигхэм, Лиза Лапира, Санг Кенг

Сюжет фильма:
Когда кривая дорожка заставляет скрывающегося от правосудия Дома Торетто вернуться в Лос-Анджелес, вражда с агентом Брайаном О’Коннером вспыхивает с новой силой. Но у парочки обнаруживается общий противник, и Дому с Брайаном приходится заключить перемирие в надежде одержать над ним победу. Грабя конвои, роя подкопы и пересекая границы, они приходят к идеальной форме отмщения — педали газа, вдавленной до упора.

Дата мировой премьеры: 12 марта 2009
Дата российской премьеры: 9 апреля 2009, UPI
Дата выхода DVD релиза: 5 мая 2009, Юниверсал Пикчерс Рус
Дата выхода Blu-Ray релиза: 1 сентября 2009, Юниверсал Пикчерс Рус



Время просмотра: 01:46:39
Качество фильма видео: DVD5

Информация о видео: MPEG-2, 720x480@853x480 (NTSC 16:9), ~4720 Кбит/сек
Информация о звуке 1: AC3 5.1, 448 Кбит/сек Русский - дублированный
Информация о звуке 2: AC3 5.1, 448 Кбит/сек Английский - оригинал
DVDInfo:
Title: Fast Furious (2009) DVD5 BD - DVD
Size: 4.38 Gb ( 4 588 876,00 KBytes ) - DVD-5
Enabled regions: 1, 2, 3, 4, 5, 6, 7, 8

VTS_01 :
Play Length: 01:46:39
Video: NTSC 16:9 (720x480) VBR, Auto Letterboxed
Audio:
Russian (Dolby AC3, 6 ch)
English (Dolby AC3, 6 ch)
Subtitles:
Russian
Russian
English

* Menus Information *

VIDEO_TS Menu
Video:
NTSC 16:9 (720x480) VBR
Auto Letterboxed
Audio:
Not specified (Dolby AC3, 6 ch)
Russian Language Unit :
Title Menu

VTS_01 Menu
Video:
NTSC 16:9 (720x480) VBR
Auto Letterboxed
Audio:
Not specified (Dolby AC3, 6 ch)
Russian Language Unit :
Root Menu
Audio Menu
Chapter (PTT) Menu
MediaInfo:
Общее
Полное имя : D:ФИЛЬМЫFast Furious (2009) DVD5 BD - DVDVIDEO_TSVTS_01_1.VOB
Формат : MPEG-PS
Размер файла : 1024 Мбайт
Продолжительность : 24 м.
Режим общего битрейта : Переменный
Общий поток : 5730 Кбит/сек

Видео
Идентификатор : 224 (0xE0)
Формат : MPEG Video
Версия формата : Version 2
Профиль формата : Main@Main
Параметр BVOP формата : Да
Параметр матрицы формата : Выборочная
Параметр GOP формата : Variable
Продолжительность : 24 м.
Вид битрейта : Переменный
Битрейт : 4720 Кбит/сек
Максимальный битрейт : 9800 Кбит/сек
Ширина : 720 пикселей
Высота : 480 пикселей
Соотношение сторон : 16:9
Частота кадров : 23,976 кадра/сек
Стандарт вещания : NTSC
Цветовое пространство : YUV
Субдискретизация насыщенности : 4:2:0
Битовая глубина : 8 бит
Тип развёртки : Прогрессивная
Порядок развёртки : 2:3 Pulldown
Метод сжатия : С потерями
Бит/(Пиксели*Кадры) : 0.570
Временной код первого кадра : 01:00:00:00
Оригинал временного кода : Group of pictures t_head
Размер потока : 843 Мбайт (82%)

Аудио #1
Идентификатор : 189 (0xBD)-128 (0x80)
Формат : AC-3
Формат/Информация : Audio Coding 3
Расширение режима : CM (complete main)
Параметр Endianness формата : Big
Режим смешивания : DVD-Video
Продолжительность : 24 м.
Вид битрейта : Постоянный
Битрейт : 448 Кбит/сек
Каналы : 6 каналов
Расположение каналов : Front: L C R, Side: L R, LFE
Частота : 48,0 КГц
Битовая глубина : 16 бит
Метод сжатия : С потерями
Размер потока : 80,0 Мбайт (8%)

Аудио #2
Идентификатор : 189 (0xBD)-129 (0x81)
Формат : AC-3
Формат/Информация : Audio Coding 3
Расширение режима : CM (complete main)
Параметр Endianness формата : Big
Режим смешивания : DVD-Video
Продолжительность : 24 м.
Вид битрейта : Постоянный
Битрейт : 448 Кбит/сек
Каналы : 6 каналов
Расположение каналов : Front: L C R, Side: L R, LFE
Частота : 48,0 КГц
Битовая глубина : 16 бит
Метод сжатия : С потерями
Размер потока : 80,0 Мбайт (8%)

Текст #1
Идентификатор : 189 (0xBD)-33 (0x21)
Формат : RLE
Формат/Информация : Run-length encoding
Режим смешивания : DVD-Video

Текст #2
Идентификатор : 189 (0xBD)-34 (0x22)
Формат : RLE
Формат/Информация : Run-length encoding
Режим смешивания : DVD-Video

Меню

Доп. информация:
Исходником данного DVD послужил Blu-Ray. Субтитры взяты с того же торрент сайта. Меню создано на основе Blu-Ray. Обработка видео проходила с помощью CCE SP3 в 3 прохода.
Бриф по изготовлению DVD:
видео - CCE SP3, AviSynth, DGDecodeNV
звук - Tranzcode, Sonic Foundry Soft Encode
меню - Photoshop, DVD Architect Pro
сборка и разборка материалов - HdBrStreamExtractor, DVDReMakePro, MuxMan
Скриншоты для ознакомления меню:

Скриншоты для ознакомления:

За DVD5 спасибо большое alut
Залил: Саша 1992
Размер скачиваемого торрента: 4.38 GB (4699009024 Bytes)

Форсаж 4 / Fast Furious (2009) DVD5 торрент скачать бесплатно
загрузка...
Рейтинг →
 (голосов: 1, оценка 5/5, голосовать можно 1 раз )

Другие торренты по теме:

  • Форсаж 4 / Fast Furious (2009) BDRip-AVC | iPad
  • Форсаж 4 / Fast Furious (2009) HDRip от Sanjar NeoJet | КПК
  • Форсаж 4 / Fast Furious (2009) BDRip 720p | D
  • Форсаж 4 / Fast and Furious (2009) HDRip-AVC | D


    • Комментарии (0):

      Информация

      Информация

        Посетители, находящиеся в группе Гости, не могут оставлять комментарии в данной новости.

        ↓ Меню



        ↓ Опрос

        А Вы добавили сайт в закладки?
        Да
        Не


        Top 10 за месяц (Фильмы)