.
Авторизация | Регистрация
» » Куклы / Dolls (1986) HDTVRip от Deadmauvlad | НТВ торрент скачать бесплатно




    Куклы / Dolls (1986) HDTVRip от Deadmauvlad | НТВ торрент скачать бесплатно

    Опубликовал: Админ | Дата: 27-02-2015, 11:09 | Просмотров: 527




    Детально о кино
    Русское название: Куклы
    Русское название в мировом прокате: Dolls
    Создали в: 1986
    Категория жанра: ужасы, фэнтези
    Снималось в: США, Empire Pictures, Taryn Productions Inc.
    Главный режиссер: Стюарт Гордон
    Актеры: Йен Патрик Уильямс, Кэролин Пёрди-Гордон, Кэрри Лоррэйн, Гай Рольф, Хилари Мейсон, Банти Бэйли, Кэсси Стюарт, Стивен Ли


    Сюжет фильма: Застигнутые ненастьем путешественники попадают в усадьбу в лесу, где проживает странная пожилая пара. Созданные этими супругами куклы обладают способностью оживать и даже убивать тех, кто им не нравится



    Качество фильма: HDTVRip
    Информация о видео:MPEG4, XviD, 688x384 (16:9), 25.000 fps, 1 312 Kbps (0.199 bit/pixel)
    Информация о звуке:AC-3, 48.0 KHz, 2 ch, 128 Kbps, CBR
    Время просмотра: 01:12:43
    Перевод текста: Профессиональный двухголосый



    MI
    codeОбщее
    Полное имя : C:UsersDeadmauvladDesktopРелизы На выкладкуKukly.1986.Xvid.AC-3.2.0.HDTVRip.Deadmauvlad.R.G Goldenshara.avi
    Формат : AVI
    Формат/Информация : Audio Video Interleave
    Размер файла : 748 Мбайт
    Продолжительность : 1 ч. 12 м.
    Общий поток : 1450 Кбит/сек
    Название фильма : Kukly.1986.Xvid.AC-3.2.0.HDTVRip
    Режиссёр : Deadmauvlad
    Жанр : Ужасы
    Программа кодирования : VirtualDubMod 1.5.10.3 | www.virtualdub-fr.org || (build 2550/release)
    Формат оригинала/Имя : Фильм
    Правообладатель : R.G. GoldenShara

    Видео
    Идентификатор : 0
    Формат : MPEG-4 Visual
    Профиль формата : Advanced Simple@L5
    Параметр BVOP формата : 2
    Параметр QPel формата : Нет
    Параметр GMC формата : Без точки перехода
    Параметр матрицы формата : Default (MPEG)
    Идентификатор кодека : XVID
    Идентификатор кодека/Подсказка : XviD
    Продолжительность : 1 ч. 12 м.
    Битрейт : 1312 Кбит/сек
    Ширина : 688 пикселей
    Высота : 384 пикселя
    Соотношение сторон : 16:9
    Частота кадров : 25,000 кадров/сек
    Цветовое пространство : YUV
    Субдискретизация насыщенности : 4:2:0
    Битовая глубина : 8 бит
    Тип развёртки : Прогрессивная
    Метод сжатия : С потерями
    Бит/(Пиксели*Кадры) : 0.199
    Размер потока : 677 Мбайт (91%)
    Библиотека кодирования : XviD 1.2.1 (UTC 2008-12-04)

    Аудио
    Идентификатор : 1
    Формат : AC-3
    Формат/Информация : Audio Coding 3
    Расширение режима : CM (complete main)
    Параметр Endianness формата : Big
    Идентификатор кодека : 2000
    Продолжительность : 1 ч. 12 м.
    Вид битрейта : Постоянный
    Битрейт : 128 Кбит/сек
    Каналы : 2 канала
    Расположение каналов : Front: L R
    Частота : 48,0 КГц
    Битовая глубина : 16 бит
    Метод сжатия : С потерями
    Размер потока : 66,0 Мбайт (9%)
    Выравнивание : Разделение по промежуткам
    Продолжительность промежутка : 40 мс. (1,00 видеокадр)
    Время предзагрузки промежутка : 500 мс/code.


    Скриншоты для ознакомления









    Релиз подготовил:

    Автор Рипа
    Залил: DJ_V.K_TV
    Размер скачиваемого торрента: 747.85 MB (784179200 Bytes)

    Куклы / Dolls (1986) HDTVRip от Deadmauvlad | НТВ торрент скачать бесплатно
    загрузка...
    Рейтинг →
     (голосов: 1, оценка 4/5, голосовать можно 1 раз )

    Другие торренты по теме:

  • Смертоносная пантера / Куклы-убийцы / Lethal Panther / Deadly China Dolls (1990) VHSRip торрент скачать бесплатно
  • Куклы (1994-2002) VHSRip торрент скачать бесплатно
  • Кровавые Куклы / Blood Dolls (1999) DVDRip от Brazzass торрент скачать бесплатно
  • Куклы / Dolls (1986) HDTVRip 720p от ClubTorrent | P2 торрент скачать бесплатно
  • Дьявольская кукла / The Devil-Doll (1936) DVDRip-AVC от F-Torrents торрент скачать бесплатно
  • Кукла / Die Puppe (1919) DVDRip | Sub скачать через торрент бесплатно
  • Несокрушимая Механическая Кукла / Machine-Doll wa Kizutsukanai (2013) HDTVRip 720p | AniFilm скачать через торрент бесплатно
  • Несокрушимая механическая кукла / Machine-Doll wa Kizutsukanai (2013) HDTV 720p | L2 торрент скачать бесплатно


    • Комментарии (0):

      Информация

      Информация

        Посетители, находящиеся в группе Гости, не могут оставлять комментарии в данной новости.

        ↓ Меню



        ↓ Опрос

        А Вы добавили сайт в закладки?
        Да
        Не


        Top 10 за неделю (Фильмы)