.
Авторизация | Регистрация
Хочешь лучшие торренты? Добавь свой email!
Добавить
» » Форсаж 6 / Furious 6 (2013) DVD5 скачать через торрент бесплатно




    Форсаж 6 / Furious 6 (2013) DVD5 скачать через торрент бесплатно

    Опубликовал: Админ | Дата: 27-02-2015, 11:09 | Просмотров: 649



    Создали в: 2013
    Создали в: США / Universal Pictures, Original Film
    Категория жанра: Боевик, триллер, драма, криминал
    Перевод текста: Дублированный лицензия
    Субтитры: Вшитые отключаемые
    Язык субтитров: Русский, английский

    Главный режиссер: Джастин Лин
    Актеры: Вин Дизель, Пол Уокер, Дуэйн Джонсон, Мишель Родригес, Люк Эванс, Тайриз Гибсон, Лудакрис, Санг Кенг, Галь Гадот, Джордана Брюстер, Джина Карано, Эльза Патаки, Джейсон Стэйтем

    Сюжет фильма:
    После того как Доминик и Брайн побывали в Рио, где они ограбили и свергли империю вора в законе, их команда получила 100 миллионов, и наши герои оказались разбросаны по всему миру. Но их привычка вечно жить в бегах не даёт им покоя. Между тем, Хоббс отслеживал организацию смертельно опасных наёмников-водителей по двенадцати странам. Единственный способ остановить эту криминальную группу — это превзойти их на улицах, поэтому Хоббс просит Доминика собрать его элитную команду в Лондоне. За это он обещает полное помилование для Доминика и его друзей, чтобы они смогли наконец вернуться домой к своей семье.

    Дата мировой премьеры: 7 мая 2013
    Дата российской премьеры: 23 мая 2013, UPI
    Дата выхода DVD/Blu-Ray релиза: 26 сентября 2013, Двадцатый Век Фокс СНГ



    Время просмотра: 02:10:55
    Качество фильма видео: DVD5

    Информация о видео: MPEG-2, 720x480@853x480 (NTSC 16:9), ~3936 Кбит/сек
    Информация о звуке 1: AC3 5.1, 448 Кбит/сек Русский - дублированный
    Информация о звуке 2: AC3 5.1, 448 Кбит/сек Английский - оригинал
    DVDInfo:
    Title: Furious 6 (2013) DVD5 BD - DVD
    Size: 4.37 Gb ( 4 585 296,00 KBytes ) - DVD-5
    Enabled regions: 1, 2, 3, 4, 5, 6, 7, 8

    VTS_01 :
    Play Length: 02:10:55
    Video: NTSC 16:9 (720x480) VBR, Auto Letterboxed
    Audio:
    Russian (Dolby AC3, 6 ch)
    English (Dolby AC3, 6 ch)
    Subtitles:
    Russian
    Russian
    English

    * Menus Information *

    VIDEO_TS Menu
    Video:
    NTSC 16:9 (720x480) VBR
    Auto Letterboxed
    Audio:
    Not specified (Dolby AC3, 6 ch)
    Russian Language Unit :
    Title Menu

    VTS_01 Menu
    Video:
    NTSC 16:9 (720x480) VBR
    Auto Letterboxed
    Audio:
    Not specified (Dolby AC3, 6 ch)
    Russian Language Unit :
    Root Menu
    Audio Menu
    Chapter (PTT) Menu
    MediaInfo:
    Общее
    Полное имя : D:ФИЛЬМЫFurious 6 (2013) DVD5 BD - DVDVIDEO_TSVTS_01_1.VOB
    Формат : MPEG-PS
    Размер файла : 1024 Мбайт
    Продолжительность : 29 м.
    Режим общего битрейта : Переменный
    Общий поток : 4931 Кбит/сек

    Видео
    Идентификатор : 224 (0xE0)
    Формат : MPEG Video
    Версия формата : Version 2
    Профиль формата : Main@Main
    Параметр BVOP формата : Да
    Параметр матрицы формата : Выборочная
    Параметр GOP формата : Variable
    Продолжительность : 29 м.
    Вид битрейта : Переменный
    Битрейт : 3936 Кбит/сек
    Максимальный битрейт : 9800 Кбит/сек
    Ширина : 720 пикселей
    Высота : 480 пикселей
    Соотношение сторон : 16:9
    Частота кадров : 23,976 кадра/сек
    Стандарт вещания : NTSC
    Цветовое пространство : YUV
    Субдискретизация насыщенности : 4:2:0
    Битовая глубина : 8 бит
    Тип развёртки : Прогрессивная
    Порядок развёртки : 2:3 Pulldown
    Метод сжатия : С потерями
    Бит/(Пиксели*Кадры) : 0.475
    Временной код первого кадра : 01:00:00:00
    Оригинал временного кода : Group of pictures t_head
    Размер потока : 818 Мбайт (80%)

    Аудио #1
    Идентификатор : 189 (0xBD)-128 (0x80)
    Формат : AC-3
    Формат/Информация : Audio Coding 3
    Расширение режима : CM (complete main)
    Параметр Endianness формата : Big
    Режим смешивания : DVD-Video
    Продолжительность : 29 м.
    Вид битрейта : Постоянный
    Битрейт : 448 Кбит/сек
    Каналы : 6 каналов
    Расположение каналов : Front: L C R, Side: L R, LFE
    Частота : 48,0 КГц
    Битовая глубина : 16 бит
    Метод сжатия : С потерями
    Размер потока : 93,0 Мбайт (9%)

    Аудио #2
    Идентификатор : 189 (0xBD)-129 (0x81)
    Формат : AC-3
    Формат/Информация : Audio Coding 3
    Расширение режима : CM (complete main)
    Параметр Endianness формата : Big
    Режим смешивания : DVD-Video
    Продолжительность : 29 м.
    Вид битрейта : Постоянный
    Битрейт : 448 Кбит/сек
    Каналы : 6 каналов
    Расположение каналов : Front: L C R, Side: L R, LFE
    Частота : 48,0 КГц
    Битовая глубина : 16 бит
    Метод сжатия : С потерями
    Размер потока : 93,0 Мбайт (9%)

    Меню

    Доп. информация:
    Исходником данного DVD послужил Blu-Ray CCE скачанный в сети . Меню создано на основе Blu-Ray. Обработка видео проходила с помощью CCE SP3 в 2 прохода.
    Бриф по изготовлению DVD:
    видео - CCE SP3, AviSynth, DGDecodeNV
    звук - Tranzcode, Sonic Foundry Soft Encode
    меню - Photoshop, DVD Architect Pro
    сборка и разборка материалов - tsMuxer, DVDReMakePro, MuxMan
    Скриншоты для ознакомления меню:

    Скриншоты для ознакомления:

    За DVD5 спасибо большое alut
    Залил: Саша 1992
    Размер скачиваемого торрента: 4.37 GB (4695343104 Bytes)

    Форсаж 6 / Furious 6 (2013) DVD5 скачать через торрент бесплатно
    загрузка...
    Рейтинг →
     (голосов: 1, оценка 4/5, голосовать можно 1 раз )

    Другие торренты по теме:

  • Форсаж 6 / Fast Furious 6 (2013) HDTVRip 1080p | Трейлер
  • OST - Форсаж 6 / Fast Furious 6 (2013) MP3 от AGR - Generalfilm
  • OST Форсаж 6 / Fast Furious 6 (2013) MP3, M4A
  • Форсаж 6 / Furious 6 (2013) WEB-DLRip-AVC | D | iTunes Russia
  • Форсаж 6 / Furious 6 (2013) BDRemux 1080p | Extended Cut | iTunes Russian
  • Форсаж 6 / Fast Furious 6 (2013) BDRip 720p | Extended Cut | iTunes Russian
  • Форсаж 6 / Furious 6 (2013) BDRip-AVC от leonardo 59 Scarabey | iTunes Russia | Theatrical Cut
  • Форсаж 6 / Furious 6 (2013) BDRip 720p от leonardo 59 Scarabey | iTunes Russia | Theatrical Cut


    • Комментарии (0):

      Информация

      Информация

        Посетители, находящиеся в группе Гости, не могут оставлять комментарии в данной новости.

        ↓ Меню



        ↓ Опрос

        А Вы добавили сайт в закладки?
        Да
        Не


        Top 10 за месяц (Фильмы)