.
Авторизация | Регистрация
Хочешь лучшие торренты? Добавь свой email!
Добавить
» » Чертов мобильник / Hellphone (2007) HDTVRip от Deadmauvlad | D скачать через торрент бесплатно




    Чертов мобильник / Hellphone (2007) HDTVRip от Deadmauvlad | D скачать через торрент бесплатно

    Опубликовал: Админ | Дата: 27-02-2015, 11:09 | Просмотров: 333



    Стань абонентом сети желаний

    Русское название: Чертов мобильник
    Русское название в мировом прокате: Hellphone
    Создали в: 2007
    Снималось в: Франция, Captain Movies
    Время просмотра: 01:35:23
    Категория жанра: Ужасы, фэнтези, комедия, детектив
    Перевод текста: Дубляж
    Главный режиссер: Джеймс Хат
    Актеры: Жан-Баптист Монье, Дженнифер Деккер, Бенджамин Юнгерс, Владимир Консиньи, Эдуар Коллен, Баптист Кайо, Анаис Демустье, Жюдит Шемла, Квентин Гроссе, Жеральдин Мартино, Жиль Гастон-Дрефус, Клотильда Молле, Бруно Саломон, Жиль Прива, Жан Дюжарден

    Сюжет: У семнадцатилетнего Сида была одна страсть скейтборд, пока в его классе не появилась чумовая новенькая Анжи, от которой у Сида снесло башню. У бедного парня нет ни единого шанса покорить сердце красотки. Во-первых, он живет в трущобах на окраине города, во-вторых, работает официантом в вонючей забегаловке, в третьих в кармане пусто, а главное у него нет даже мобильника! Сид знает, что он самый жалкий неудачник на земле. Но жизнь парня круто меняется, когда ему в руки случайно попадает потрясающе крутой мобильник. Как лампа Аладдина, мобила моментально выполняет все желания Сида. Теперь ему доступно абсолютно все, казалось бы, о чем еще мечтать? Но постепенно Сид начинает терять контроль над происходящим, и его жизнь превращается в нереальные приключения...


    Качество фильма: HDTVRip
    Тип видео: AVI

    Информация о видео: 688x384 (1.79:1), 25 fps, XviD build 50 ~975 kbps avg, 0.15 bit/pixe
    Информация о звуке: 44.100 kHz, MPEG Layer 3, 2 ch, ~112.00 kbps avg
    MI
    Общее
    Полное имя : C:UsersDeadmauvladDesktopРелизы На выкладкуChertov.mobilnik.2007.Xvid.HDTVRip.Deadmauvlad.avi
    Формат : AVI
    Формат/Информация : Audio Video Interleave
    Размер файла : 749 Мбайт
    Продолжительность : 1 ч. 35 м.
    Общий поток : 1097 Кбит/сек
    Режиссёр : Deadmauvlad
    Тема : Chertov.mobilnik.2007.Xvid..AC-3.Deadmauvlad.HDTVRip
    Программа кодирования : VirtualDubMod 1.5.10.3 | www.virtualdub-fr.org || (build 2550/release)
    Библиотека кодирования : VirtualDub build 35390/release
    Правообладатель : Deadmauvlad Team;s

    Видео
    Идентификатор : 0
    Формат : MPEG-4 Visual
    Профиль формата : Advanced Simple@L5
    Параметр BVOP формата : 2
    Параметр QPel формата : Нет
    Параметр GMC формата : Без точки перехода
    Параметр матрицы формата : Default (MPEG)
    Идентификатор кодека : XVID
    Идентификатор кодека/Подсказка : XviD
    Продолжительность : 1 ч. 35 м.
    Битрейт : 976 Кбит/сек
    Ширина : 688 пикселей
    Высота : 384 пикселя
    Соотношение сторон : 16:9
    Частота кадров : 25,000 кадров/сек
    Цветовое пространство : YUV
    Субдискретизация насыщенности : 4:2:0
    Битовая глубина : 8 бит
    Тип развёртки : Прогрессивная
    Метод сжатия : С потерями
    Бит/(Пиксели*Кадры) : 0.148
    Размер потока : 665 Мбайт (89%)
    Библиотека кодирования : XviD 1.2.1 (UTC 2008-12-04)

    Аудио
    Идентификатор : 1
    Формат : MPEG Audio
    Версия формата : Version 1
    Профиль формата : Layer 3
    Идентификатор кодека : 55
    Идентификатор кодека/Подсказка : MP3
    Продолжительность : 1 ч. 35 м.
    Вид битрейта : Постоянный
    Битрейт : 112 Кбит/сек
    Каналы : 2 канала
    Частота : 44,1 КГц
    Метод сжатия : С потерями
    Размер потока : 76,4 Мбайт (10%)
    Выравнивание : Разделение по промежуткам
    Продолжительность промежутка : 40 мс. (1,00 видеокадр)
    Время предзагрузки промежутка : 500 мс.
    Библиотека кодирования : LAME3.99r
    Залил: DJ_V.K_TV
    Размер скачиваемого торрента: 748.51 MB (784870292 Bytes)


    Чертов мобильник / Hellphone (2007) HDTVRip от Deadmauvlad | D скачать через торрент бесплатно
    загрузка...
    Рейтинг →
     (голосов: 1, оценка 5/5, голосовать можно 1 раз )

    Другие торренты по теме:



      Комментарии (0):

      Информация

      Информация

        Посетители, находящиеся в группе Гости, не могут оставлять комментарии в данной новости.

        ↓ Меню



        ↓ Опрос

        А Вы добавили сайт в закладки?
        Да
        Не


        Top 10 за месяц (Фильмы)