.
Авторизация | Регистрация
» » Пипец 2 / Kick-Ass 2 (2013) BDRip 1080p | D | iTunes Russia торрент скачать бесплатно




    Пипец 2 / Kick-Ass 2 (2013) BDRip 1080p | D | iTunes Russia торрент скачать бесплатно

    Опубликовал: Админ | Дата: 27-02-2015, 11:09 | Просмотров: 252



    Русское название: Пипец 2
    Русское название в мировом прокате: Kick-Ass 2
    Создали в: 2013
    Категория жанра: Боевик, триллер, комедия, криминал
    Главный режиссер: Джефф Уодлоу
    Актеры: Аарон Джонсон, Клои Грэйс Моретц, Кристофер Минц-Плассе, Джим Керри, Ольга Куркулина, Клаудия Ли, Джон Легуизамо, Линдси Фонсека, Дональд Фэйзон, Моррис Честнат, Кларк Дьюк, Линди Бут, Стивен Макинтош, Элла Пурнелла, Август Прю, Дэниэл Калуя

    Сюжет: В реальной жизни не встретишь супергероя из комиксов, зато в ней есть настоящие герои. Харизматичный Пипец и гламурная Убивашка обрели новую команду поддержки во главе с Полковником Америка. Но кроме обычных мафиози, над городом нависает новая угроза — молодой мажор с очень дурным характером и целой армией отмороженных наемников.

    Снималось в: США, Marv Films
    Время просмотра: 01:43:00
    Перевод текста: Дублированный

    Качество фильма: BDRip (1080p)
    Информация о видео: MPEG-4 AVC, 8514 Кбит/с, 1920x800
    Информация о звуке rus: AC3, 6 ch, 384 Кбит/с
    Информация о звуке eng: DTS, 6 ch, 1509 Кбит/с
    Субтитры: Английские

    Инфо
    Полное имя : E:Pipec.2.2013.x264.BDRip.(1080p).tahiy.mkv
    Формат : Matroska
    Версия формата : Version 4 / Version 2
    Размер файла : 7,49 Гбайт
    Продолжительность : 1 ч. 43 м.
    Общий поток : 10,4 Мбит/сек
    Название фильма : Пипец 2 - = Rip by tahiy = -
    Дата кодирования : UTC 2013-12-01 07:33:45
    Программа кодирования : mkvmerge v6.3.0 (;You can;t stop me!;) built on Jul 19 2013 16:27:38
    Библиотека кодирования : libebml v1.3.0 libmatroska v1.4.1

    Видео
    Идентификатор : 1
    Формат : AVC
    Формат/Информация : Advanced Video Codec
    Профиль формата : High@L4.1
    Параметр CABAC формата : Да
    Параметр ReFrames формата : 4 кадра
    Идентификатор кодека : V_MPEG4/ISO/AVC
    Продолжительность : 1 ч. 43 м.
    Битрейт : 8514 Кбит/сек
    Ширина : 1920 пикселей
    Высота : 800 пикселей
    Соотношение сторон : 2,40:1
    Режим частоты кадров : Постоянный
    Частота кадров : 23,976 кадра/сек
    Цветовое пространство : YUV
    Субдискретизация насыщенности : 4:2:0
    Битовая глубина : 8 бит
    Тип развёртки : Прогрессивная
    Бит/(Пиксели*Кадры) : 0.231
    Размер потока : 5,98 Гбайт (80%)
    Заголовок : Пипец 2 - = Rip by tahiy = -
    Библиотека кодирования : x264 core 130 r2273 b3065e6
    Настройки программы : cabac=1 / ref=4 / deblock=1:-2:-2 / analyse=0x3:0x113 / me=umh / subme=10 / psy=1 / psy_rd=1.00:0.20 / mixed_ref=1 / me_range=32 / chroma_me=1 / trellis=2 / 8x8dct=1 / cqm=0 / deadzone=21,11 / fast_pskip=0 / chroma_qp_offset=-3 / threads=6 / lookahead_threads=1 / sliced_threads=0 / nr=0 / decimate=0 / interlaced=0 / bluray_compat=0 / constrained_intra=0 / bframes=6 / b_pyramid=2 / b_adapt=2 / b_bias=0 / direct=3 / weightb=1 / open_gop=0 / weightp=2 / keyint=240 / keyint_min=23 / scenecut=40 / intra_refresh=0 / rc_lookahead=40 / rc=2pass / mbtree=0 / bitrate=8514 / ratetol=1.0 / qcomp=0.60 / qpmin=0 / qpmax=69 / qpstep=4 / cplxblur=20.0 / qblur=0.5 / vbv_maxrate=50000 / vbv_bufsize=62500 / nal_hrd=none / ip_ratio=1.40 / pb_ratio=1.30 / aq=1:1.00
    Язык : English
    Default : Да
    Forced : Нет

    Аудио #1
    Идентификатор : 2
    Формат : AC-3
    Формат/Информация : Audio Coding 3
    Расширение режима : CM (complete main)
    Параметр Endianness формата : Big
    Идентификатор кодека : A_AC3
    Продолжительность : 1 ч. 43 м.
    Вид битрейта : Постоянный
    Битрейт : 384 Кбит/сек
    Каналы : 6 каналов
    Расположение каналов : Front: L C R, Side: L R, LFE
    Частота : 48,0 КГц
    Битовая глубина : 16 бит
    Метод сжатия : С потерями
    Размер потока : 283 Мбайт (4%)
    Язык : Russian
    Default : Да
    Forced : Нет

    Аудио #2
    Идентификатор : 3
    Формат : DTS
    Формат/Информация : Digital Theater Systems
    Режим : 16
    Параметр Endianness формата : Big
    Идентификатор кодека : A_DTS
    Продолжительность : 1 ч. 43 м.
    Вид битрейта : Постоянный
    Битрейт : 1509 Кбит/сек
    Каналы : 6 каналов
    Расположение каналов : Front: L C R, Side: L R, LFE
    Частота : 48,0 КГц
    Битовая глубина : 24 бит
    Метод сжатия : С потерями
    Размер потока : 1,09 Гбайт (14%)
    Язык : English
    Default : Нет
    Forced : Нет

    Текст
    Идентификатор : 4
    Формат : UTF-8
    Идентификатор кодека : S_TEXT/UTF8
    Идентификатор кодека/Информация : UTF-8 Plain Text
    Язык : English
    Default : Нет
    Forced : Нет
    Скриншоты для ознакомления


    Размер скачиваемого торрента: 7.49 GB (8041634582 Bytes)

    Пипец 2 / Kick-Ass 2 (2013) BDRip 1080p | D | iTunes Russia торрент скачать бесплатно
    загрузка...
    Рейтинг →
     (голосов: 1, оценка 5/5, голосовать можно 1 раз )

    Другие торренты по теме:

  • OST - Пипец / Kick-Ass (2010) MP3 торрент скачать бесплатно
  • Пипец / Kick-Ass (2010) BDRip-AVC | iPad торрент скачать бесплатно
  • Пипец 2 / Kick-Ass 2 (2013) HD 1080p | Трейлер торрент скачать бесплатно
  • Пипец-2 / Kick-Ass 2 (2013) WEBRip 720p | L1 торрент скачать бесплатно
  • Пипец-2 / Kick-Ass 2 (2013) WEBRip | L1 торрент скачать бесплатно
  • Пипец 2 / Kick-Ass 2 (2013) WEBRip | D | Звук с TS торрент скачать бесплатно
  • OST - Пипец 1-2 / Kick-Ass 1-2 (2010-2013) MP3 торрент скачать бесплатно
  • Пипец 2 / Kick-Ass 2 (2013) WEBD-LRip | iTunes скачать через торрент бесплатно


    • Комментарии (0):

      Информация

      Информация

        Посетители, находящиеся в группе Гости, не могут оставлять комментарии в данной новости.

        ↓ Меню



        ↓ Опрос

        А Вы добавили сайт в закладки?
        Да
        Не


        Top 10 за неделю (Фильмы)