.
Авторизация | Регистрация
» » Шанхайский полдень / Shanghai Noon (2000) BDRip by msltel | P, P2, A торрент скачать бесплатно




    Шанхайский полдень / Shanghai Noon (2000) BDRip by msltel | P, P2, A торрент скачать бесплатно

    Опубликовал: Админ | Дата: 27-02-2015, 11:09 | Просмотров: 419



    Русское название: Шанхайский полдень
    Русское название в мировом прокате: Shanghai Noon
    Создали в: 2000
    Категория жанра: Боевик, комедия, приключения, вестерн
    Снималось в: США, Гонконг, Jackie Chan Films Limited, Roger Birnbaum Productions, Spyglass Entertainment, Touchstone Pictures
    Главный режиссер: Том Дей
    Актеры: Джеки Чан, Оуэн Уилсон, Люси Лью, Брэндон Мэрилл, Роджер Йуан, Ксандер Беркли, Ю Рон Гуан, Я Хи Куи, Эрик Чен, Джейсон Коннери, Уолтон Гоггинс, Эдриан Дорваль, Рафаэль Баэс, Стэйси Грант, Кейт Лайбен, Генри О, Расселл Баджер, Саймон Бэйкер, Сэм Саймон, Алан С. Петерсон, Рэд Дейли, Ли Джей Бэмберри, Стивен Страхан, Тим Кеттинг, Рик Эш, Валери Планше, Том Хитон, Джеймс Бэйкер, Джим Шилд, Майк Митчелл, Шэйн Уайлер, Бен Сэлтер, Терри Кинг, Мишель Фансетт, Джойс Дулиттл, Рэнди Бёрч, Эндрю Криванек, Кристофер Хант, Джоди Томпсон, Элиза Мёрбах, Кендалл Саундерс

    Сюжет фильма: Когда прекрасную китайскую принцессу похищают, Император отправляет на Дикий Запад троих самых верных и искусных телохранителей. Чон Ванг, естественно, не оказывается в их числе. Но тайными путями ему всё-таки удаётся попасть в воинственную делегацию и оказаться в самом сердце Америки и непредсказуемых событий. Вместе со случайным напарником китайский телохранитель попадает во всевозможные переделки; между делом, он помогает племени Сиу, выкуривает трубку мира и тут же оказывается на тропе войны, по которой пробегают его многочисленные враги.

    Качество фильма: BDRip
    Размер скачиваемого торрента: 2.84 ГБ
    Время просмотра: 01:50:16

    Информация о видео: XviD, 1903 Кбит/с, 720x400
    Информация о звуке 1: русский, 48 kHz, AC3, 6 ch, 448 kbps avg, Профессиональный многоголосый, ТНТ
    Информация о звуке 2: русский, 48 kHz, AC3, 6 ch, 448 kbps avg, Профессиональный двухголосый, R5
    Субтитры: немецкие (хардсабы на неанглийскую речь)

    Внешние файлы
    Информация о звуке: русский, 48 kHz, AC3, 2 ch, 192 kbps avg, Авторский, Андрей Дольский
    Информация о звуке: русский, 48 kHz, AC3, 2 ch, 224 kbps avg, Авторский, Юрий Живов
    Информация о звуке: английский, 48 kHz, AC3, 6 ch, 448 kbps avg, Оригинал
    Субтитры: русские
    Субтитры: английские

    Исходник: Marchik60 (Кинозал)

    Сравнение с исходником



    MediaInfo
    Общее
    Полное имя : E:VideoShanhajski.polden.2000.XviD.BDRipShanhajski.polden.2000.AVO.rus.А.Дольский.ac3
    Формат : AC-3
    Формат/Информация : Audio Coding 3
    Размер файла : 151 Мбайт
    Продолжительность : 1 ч. 50 м.
    Режим общего битрейта : Постоянный
    Общий поток : 192 Кбит/сек

    Аудио
    Формат : AC-3
    Формат/Информация : Audio Coding 3
    Расширение режима : CM (complete main)
    Параметр Endianness формата : Big
    Продолжительность : 1 ч. 50 м.
    Вид битрейта : Постоянный
    Битрейт : 192 Кбит/сек
    Каналы : 2 канала
    Расположение каналов : Front: L R
    Частота : 48,0 КГц
    Битовая глубина : 16 бит
    Метод сжатия : С потерями
    Размер потока : 151 Мбайт (100%)

    Общее
    Полное имя : E:VideoShanhajski.polden.2000.XviD.BDRipShanhajski.polden.2000.AVO.rus.Ю.Живов.ac3
    Формат : AC-3
    Формат/Информация : Audio Coding 3
    Размер файла : 177 Мбайт
    Продолжительность : 1 ч. 50 м.
    Режим общего битрейта : Постоянный
    Общий поток : 224 Кбит/сек

    Аудио
    Формат : AC-3
    Формат/Информация : Audio Coding 3
    Расширение режима : CM (complete main)
    Параметр Endianness формата : Big
    Продолжительность : 1 ч. 50 м.
    Вид битрейта : Постоянный
    Битрейт : 224 Кбит/сек
    Каналы : 2 канала
    Расположение каналов : Front: L R
    Частота : 48,0 КГц
    Битовая глубина : 16 бит
    Метод сжатия : С потерями
    Размер потока : 177 Мбайт (100%)

    Общее
    Полное имя : E:VideoShanhajski.polden.2000.XviD.BDRipShanhajski.polden.2000.eng.srt
    Размер файла : 7,44 Кбайт

    Общее
    Полное имя : E:VideoShanhajski.polden.2000.XviD.BDRipShanhajski.polden.2000.Original.eng.ac3
    Формат : AC-3
    Формат/Информация : Audio Coding 3
    Размер файла : 353 Мбайт
    Продолжительность : 1 ч. 50 м.
    Режим общего битрейта : Постоянный
    Общий поток : 448 Кбит/сек

    Аудио
    Формат : AC-3
    Формат/Информация : Audio Coding 3
    Расширение режима : CM (complete main)
    Параметр Endianness формата : Big
    Продолжительность : 1 ч. 50 м.
    Вид битрейта : Постоянный
    Битрейт : 448 Кбит/сек
    Каналы : 6 каналов
    Расположение каналов : Front: L C R, Side: L R, LFE
    Частота : 48,0 КГц
    Битовая глубина : 16 бит
    Метод сжатия : С потерями
    Размер потока : 353 Мбайт (100%)

    Общее
    Полное имя : E:VideoShanhajski.polden.2000.XviD.BDRipShanhajski.polden.2000.rus.srt
    Формат : SubRip
    Размер файла : 57,3 Кбайт

    Текст
    Формат : SubRip
    Метод сжатия : Без потерь

    Общее
    Полное имя : E:VideoShanhajski.polden.2000.XviD.BDRipShanhajski.polden.2000.XviD.BDRip.avi
    Формат : AVI
    Формат/Информация : Audio Video Interleave
    Профиль формата : OpenDML
    Размер файла : 2,17 Гбайт
    Продолжительность : 1 ч. 50 м.
    Общий поток : 2816 Кбит/сек
    Программа кодирования : VirtualDubMod 1.5.10.2 (build 2540/release)
    Библиотека кодирования : VirtualDubMod build 2540/release

    Видео
    Идентификатор : 0
    Формат : MPEG-4 Visual
    Профиль формата : Advanced Simple@L5
    Параметр BVOP формата : 1
    Параметр QPel формата : Нет
    Параметр GMC формата : Без точки перехода
    Параметр матрицы формата : Default (H.263)
    Режим смешивания : Сжатый битовый поток
    Идентификатор кодека : XVID
    Идентификатор кодека/Подсказка : XviD
    Продолжительность : 1 ч. 50 м.
    Битрейт : 1903 Кбит/сек
    Ширина : 720 пикселей
    Высота : 400 пикселей
    Соотношение сторон : 16:9
    Частота кадров : 23,976 кадра/сек
    Цветовое пространство : YUV
    Субдискретизация насыщенности : 4:2:0
    Битовая глубина : 8 бит
    Тип развёртки : Прогрессивная
    Метод сжатия : С потерями
    Бит/(Пиксели*Кадры) : 0.276
    Размер потока : 1,47 Гбайт (68%)
    Библиотека кодирования : XviD 1.2.1 (UTC 2008-12-04)

    Аудио #1
    Идентификатор : 1
    Формат : AC-3
    Формат/Информация : Audio Coding 3
    Расширение режима : CM (complete main)
    Параметр Endianness формата : Big
    Идентификатор кодека : 2000
    Продолжительность : 1 ч. 50 м.
    Вид битрейта : Постоянный
    Битрейт : 448 Кбит/сек
    Каналы : 6 каналов
    Расположение каналов : Front: L C R, Side: L R, LFE
    Частота : 48,0 КГц
    Битовая глубина : 16 бит
    Метод сжатия : С потерями
    Размер потока : 353 Мбайт (16%)
    Выравнивание : Разделение по промежуткам
    Продолжительность промежутка : 42 мс. (1,00 видеокадр)
    Время предзагрузки промежутка : 500 мс.

    Аудио #2
    Идентификатор : 2
    Формат : AC-3
    Формат/Информация : Audio Coding 3
    Расширение режима : CM (complete main)
    Параметр Endianness формата : Big
    Идентификатор кодека : 2000
    Продолжительность : 1 ч. 50 м.
    Вид битрейта : Постоянный
    Битрейт : 448 Кбит/сек
    Каналы : 6 каналов
    Расположение каналов : Front: L C R, Side: L R, LFE
    Частота : 48,0 КГц
    Битовая глубина : 16 бит
    Метод сжатия : С потерями
    Размер потока : 353 Мбайт (16%)
    Выравнивание : Разделение по промежуткам
    Продолжительность промежутка : 42 мс. (1,00 видеокадр)
    Время предзагрузки промежутка : 500 мс.
    Скриншоты для ознакомления



    Залил: msltel
    Размер скачиваемого торрента: 2.84 GB (3044082975 Bytes)

    Шанхайский полдень / Shanghai Noon (2000) BDRip by msltel | P, P2, A торрент скачать бесплатно
    загрузка...
    Рейтинг →
     (голосов: 1, оценка 5/5, голосовать можно 1 раз )

    Другие торренты по теме:

  • Шанхайский полдень / Shanghai Noon (2000) BDRip 720p by msltel | P, P2, A торрент скачать бесплатно
  • Шанхайский полдень / Shanghai Noon (2000) BDRip 1080p by msltel | P, P2, A торрент скачать бесплатно
  • Шанхайский полдень / Shanghai Noon (2000) BDRip от HQCLUB торрент скачать бесплатно
  • Шанхайский полдень / Shanghai Noon (2000) BDRip 720p от HQCLUB скачать через торрент бесплатно
  • Шанхайский полдень / Shanghai Noon (2000) HDRip от TorrNada | КПК | P2 скачать через торрент бесплатно
  • Шанхайский полдень / Shanghai Noon (2000) BDRip-AVC от FAGOT100 | P2, P, A скачать торрент бесплатно


    • Комментарии (0):

      Информация

      Информация

        Посетители, находящиеся в группе Гости, не могут оставлять комментарии в данной новости.

        ↓ Меню



        ↓ Опрос

        А Вы добавили сайт в закладки?
        Да
        Не


        Top 10 за неделю (Фильмы)