.
Авторизация | Регистрация
Хочешь лучшие торренты? Добавь свой email!
Добавить
» » Слепой детектив / Man Tam / Blind Detective (2013) BDRip 720p | L2 торрент скачать бесплатно




    Слепой детектив / Man Tam / Blind Detective (2013) BDRip 720p | L2 торрент скачать бесплатно

    Опубликовал: Админ | Дата: 27-02-2015, 11:09 | Просмотров: 254



    Детально о кино
    Русское название: Слепой детектив
    Русское название в мировом прокате: Man Tam / Blind Detective
    Создали в: 2013
    Категория жанра: драма, криминал
    Главный режиссер: Джонни То
    Актеры: Энди Лау, Сэмми Чэн, Гао Юаньюань, Тао Го, Филип Кеунг, Сует Лам

    Сюжет фильма: Он — талантливый детектив, вынужденный уйти в отставку после того, как во время выполнения задания потерял зрение. С тех пор он зарабатывает на жизнь тем, что распутывает дела, с которыми не может справиться полиция. Она — многообещающий полицейский агент, терзаемая чувством вины из-за пропажи подруги детства. Потрясенная тем, с каким блеском он раскрывает дело, она просит его помочь разыскать ее подругу. Он соглашается… по только ему известным причинам.



    Снималось в: Гонконг, Китай
    Время просмотра: 02:09:37
    Тип перевода: Любительское (двухголосое) GREEN TEA

    Файл
    Тип видео: MKV
    Качество фильма: BDRip 720p
    Информация о видео: 4746 kb/s, 1280x536
    Информация о звуке: Russian: MP3, 192 kb/s (2 ch) / Chinese: AC3, 640 kb/s (6 ch) Cantonese / Chinese: AC3, 640 kb/s (6 ch) Mandarin





    MI

    Format : Matroska
    Format version : Version 4 / Version 2
    File size : 5.63 GiB
    Duration : 2h 9mn
    Overall bit rate : 6 218 Kbps
    Encoded date : UTC 2013-11-30 22:01:46
    Writing application : mkvmerge v6.1.0 (;Old Devil;) built on Mar 4 2013 09:10:42
    Writing library : libebml v1.3.0 libmatroska v1.4.0

    Video
    ID : 1
    Format : AVC
    Format/Info : Advanced Video Codec
    Format profile : High@L4.1
    Format settings, CABAC : Yes
    Format settings, ReFrames : 12 frames
    Codec ID : V_MPEG4/ISO/AVC
    Duration : 2h 9mn
    Bit rate : 4 746 Kbps
    Width : 1 280 pixels
    Height : 536 pixels
    Display aspect ratio : 2.40:1
    Frame rate : 24.000 fps
    Color space : YUV
    Chroma subsampling : 4:2:0
    Bit depth : 8 bits
    Scan type : Progressive
    Bits/(Pixel*Frame) : 0.288
    Stream size : 4.18 GiB (74%)
    Writing library : x264 core 129 r2245 704 36 8e61944 tMod MixAQ 8-bit@4:2:0 X86_64
    Encoding settings : cabac=1 / ref=12 / deblock=1:-3:-3 / analyse=0x3:0x133 / me=umh / subme=11 / psy=1 / fade_compensate=0.00 / psy_rd=1.00:0.10 / mixed_ref=1 / me_range=32 / chroma_me=1 / trellis=2 / 8x8dct=1 / cqm=0 / deadzone=21,11 / fast_pskip=0 / chroma_qp_offset=-3 / threads=18 / lookahead_threads=3 / sliced_threads=0 / nr=0 / decimate=1 / interlaced=0 / bluray_compat=0 / constrained_intra=0 / fgo=0 / bframes=8 / b_pyramid=2 / b_adapt=2 / b_bias=0 / direct=3 / weightb=1 / open_gop=0 / weightp=2 / keyint=250 / keyint_min=24 / scenecut=40 / intra_refresh=0 / rc=2pass / mbtree=0 / bitrate=4746 / ratetol=1.0 / qcomp=0.70 / qpmin=0 / qpmax=69 / qpstep=4 / cplxblur=20.0 / qblur=0.5 / ip_ratio=1.40 / pb_ratio=1.30 / aq=3 / aq-strength=0.90 / aq-sensitivity=10.00 / aq-ifactor=1.00 / aq-pfactor=1.00 / aq-bfactor=1.00 / aq2=0
    Language : Chinese
    Default : Yes
    Forced : No
    Matrix coefficients : BT.709-5, BT.1361, IEC 61966-2-4 709, SMPTE RP177

    Audio #1
    ID : 2
    Format : MPEG Audio
    Format version : Version 1
    Format profile : Layer 3
    Mode : Joint stereo
    Codec ID : A_MPEG/L3
    Codec ID/Hint : MP3
    Duration : 2h 9mn
    Bit rate mode : Constant
    Bit rate : 192 Kbps
    Channel(s) : 2 channels
    Sampling rate : 48.0 KHz
    Compression mode : Lossy
    Stream size : 178 MiB (3%)
    Language : Russian
    Default : Yes
    Forced : No

    Audio #2
    ID : 3
    Format : AC-3
    Format/Info : Audio Coding 3
    Mode extension : CM (complete main)
    Format settings, Endianness : Big
    Codec ID : A_AC3
    Duration : 2h 9mn
    Bit rate mode : Constant
    Bit rate : 640 Kbps
    Channel(s) : 6 channels
    Channel positions : Front: L C R, Side: L R, LFE
    Sampling rate : 48.0 KHz
    Bit depth : 16 bits
    Compression mode : Lossy
    Stream size : 593 MiB (10%)
    Title : Cantonese
    Language : Chinese
    Default : No
    Forced : No

    Audio #3
    ID : 4
    Format : AC-3
    Format/Info : Audio Coding 3
    Mode extension : CM (complete main)
    Format settings, Endianness : Big
    Codec ID : A_AC3
    Duration : 2h 9mn
    Bit rate mode : Constant
    Bit rate : 640 Kbps
    Channel(s) : 6 channels
    Channel positions : Front: L C R, Side: L R, LFE
    Sampling rate : 48.0 KHz
    Bit depth : 16 bits
    Compression mode : Lossy
    Stream size : 593 MiB (10%)
    Title : Mandarin
    Language : Chinese
    Default : No
    Forced : No

    Menu
    00:00:00.000 : en:00:00:00.000
    00:07:04.500 : en:00:07:04.500
    00:14:04.750 : en:00:14:04.750
    00:17:58.291 : en:00:17:58.291
    00:28:47.375 : en:00:28:47.375
    00:34:18.708 : en:00:34:18.708
    00:39:54.500 : en:00:39:54.500
    00:46:30.500 : en:00:46:30.500
    00:52:18.291 : en:00:52:18.291
    00:56:58.666 : en:00:56:58.666
    01:05:31.375 : en:01:05:31.375
    01:11:26.291 : en:01:11:26.291
    01:18:12.458 : en:01:18:12.458
    01:25:37.750 : en:01:25:37.750
    01:32:00.041 : en:01:32:00.041
    01:39:13.083 : en:01:39:13.083
    01:46:16.750 : en:01:46:16.750
    01:49:36.916 : en:01:49:36.916
    01:55:09.500 : en:01:55:09.500
    02:06:34.333 : en:02:06:34.333
    Скриншоты для ознакомления

    Размер скачиваемого торрента: 5.63 GB (6044560578 Bytes)

    Слепой детектив / Man Tam / Blind Detective (2013) BDRip 720p | L2 торрент скачать бесплатно
    загрузка...
    Рейтинг →
     (голосов: 1, оценка 4/5, голосовать можно 1 раз )

    Другие торренты по теме:

  • Слепой детектив / Man Tam / Blind Detective (2013) HDRip | L2 скачать через торрент бесплатно
  • Слепой детектив / Blind Detective / Man tam (2013) HDRip от RG Orient Extreme | L2 скачать через торрент бесплатно


    • Комментарии (0):

      Информация

      Информация

        Посетители, находящиеся в группе Гости, не могут оставлять комментарии в данной новости.

        ↓ Меню



        ↓ Опрос

        А Вы добавили сайт в закладки?
        Да
        Не


        Top 10 за месяц (Фильмы)