.
Авторизация | Регистрация
» » Команда 49: Огненная лестница / Ladder 49 (2004) BDRip by msltel | D, A скачать через торрент бесплатно




    Команда 49: Огненная лестница / Ladder 49 (2004) BDRip by msltel | D, A скачать через торрент бесплатно

    Опубликовал: Админ | Дата: 27-02-2015, 11:09 | Просмотров: 270



    Русское название: Команда 49: Огненная лестница
    Русское название в мировом прокате: Ladder 49
    Создали в: 2004
    Категория жанра: Боевик, триллер, драма
    Снималось в: США, Beacon Communications LLC, Beacon Pictures, Casey Silver Productions, Fantail Films Inc., Touchstone Pictures
    Главный режиссер: Джей Расселл
    Актеры: Хоакин Феникс, Джон Траволта, Джасинда Бэрретт, Роберт Патрик, Моррис Честнат, Билли Бёрк, Бальтазар Гетти, Тим Гини, Кевин Чэпмен, Джей Эрнандес, Кевин Дэниелс, Стив Мэй, Роберт Льюис, Брук Хэмлин, Спенсер Берглунд, Карен Лоррэйн Викс, Дезри Кэа, Пегги Кафферти, Мария Аллен, Лесли Лайлс, Роберт МакКэй, Ричард Пилчер, Джон Лумия, Роберт О’Нейлл, Тодд Кахун, Джесс Кинг, Реверенд Дж. Кевин Фармер, Делани Уильямс, Шарлин Уильямс, Рори Д. Годсей, Дакота Ли Холлоуэй, Кэрол Флоренс, Кайл Прю, Стэн Стовэлл, Барбара Уорд, Шон Прэтт

    Сюжет фильма: Пойманному в огненную ловушку пожарному Джеку Мориссону предстоит вспомнить свою полную приключений жизнь, а его друзьям и коллегам по пожарному отряду Лестница 49 во главе с боссом Кеннеди сделать всё возможное, чтобы спасти его. Впереди у героев испытания и пламенные вихри, но они — крепкая команда настоящих мужчин, способная всё преодолеть…

    Качество фильма: BDRip
    Размер скачиваемого торрента: 2.93 ГБ
    Время просмотра: 01:55:03

    Информация о видео: XviD, 1903 Кбит/с, 720x384
    Информация о звуке 1: русский, 48 kHz, AC3, 6 ch, 448 kbps avg, Авторский, Сергей Визгунов
    Информация о звуке 2: русский, 48 kHz, AC3, 6 ch, 448 kbps avg, Авторский, Юрий Немахов

    Внешние файлы
    Информация о звуке: русский, 48 kHz, AC3, 6 ch, 384 kbps avg, Дублированный
    Информация о звуке: английский, 48 kHz, AC3, 6 ch, 448 kbps avg, Оригинал
    Субтитры: русские
    Субтитры: английские

    Исходник: delo2006 (HDTracker)

    Сравнение с исходником



    MediaInfo
    Общее
    Полное имя : E:VideoKomanda.49.2004.XviD.BDRipKomanda.49.2004.DUB.rus.ac3
    Формат : AC-3
    Формат/Информация : Audio Coding 3
    Размер файла : 316 Мбайт
    Продолжительность : 1 ч. 55 м.
    Режим общего битрейта : Постоянный
    Общий поток : 384 Кбит/сек

    Аудио
    Формат : AC-3
    Формат/Информация : Audio Coding 3
    Расширение режима : CM (complete main)
    Параметр Endianness формата : Big
    Продолжительность : 1 ч. 55 м.
    Вид битрейта : Постоянный
    Битрейт : 384 Кбит/сек
    Каналы : 6 каналов
    Расположение каналов : Front: L C R, Side: L R, LFE
    Частота : 48,0 КГц
    Битовая глубина : 16 бит
    Метод сжатия : С потерями
    Размер потока : 316 Мбайт (100%)

    Общее
    Полное имя : E:VideoKomanda.49.2004.XviD.BDRipKomanda.49.2004.eng.srt
    Размер файла : 173 Кбайт

    Общее
    Полное имя : E:VideoKomanda.49.2004.XviD.BDRipKomanda.49.2004.Original.eng.ac3
    Формат : AC-3
    Формат/Информация : Audio Coding 3
    Размер файла : 369 Мбайт
    Продолжительность : 1 ч. 55 м.
    Режим общего битрейта : Постоянный
    Общий поток : 448 Кбит/сек

    Аудио
    Формат : AC-3
    Формат/Информация : Audio Coding 3
    Расширение режима : CM (complete main)
    Параметр Endianness формата : Big
    Продолжительность : 1 ч. 55 м.
    Вид битрейта : Постоянный
    Битрейт : 448 Кбит/сек
    Каналы : 6 каналов
    Расположение каналов : Front: L C R, Side: L R, LFE
    Частота : 48,0 КГц
    Битовая глубина : 16 бит
    Метод сжатия : С потерями
    Размер потока : 369 Мбайт (100%)

    Общее
    Полное имя : E:VideoKomanda.49.2004.XviD.BDRipKomanda.49.2004.rus.srt
    Размер файла : 146 Кбайт

    Общее
    Полное имя : E:VideoKomanda.49.2004.XviD.BDRipKomanda.49.2004.XviD.BDRip.avi
    Формат : AVI
    Формат/Информация : Audio Video Interleave
    Профиль формата : OpenDML
    Размер файла : 2,26 Гбайт
    Продолжительность : 1 ч. 55 м.
    Общий поток : 2817 Кбит/сек
    Программа кодирования : VirtualDubMod 1.5.10.2 (build 2540/release)
    Библиотека кодирования : VirtualDubMod build 2540/release

    Видео
    Идентификатор : 0
    Формат : MPEG-4 Visual
    Профиль формата : Advanced Simple@L5
    Параметр BVOP формата : 1
    Параметр QPel формата : Нет
    Параметр GMC формата : Без точки перехода
    Параметр матрицы формата : Default (H.263)
    Режим смешивания : Сжатый битовый поток
    Идентификатор кодека : XVID
    Идентификатор кодека/Подсказка : XviD
    Продолжительность : 1 ч. 55 м.
    Битрейт : 1903 Кбит/сек
    Ширина : 720 пикселей
    Высота : 384 пикселя
    Соотношение сторон : 1,85:1
    Частота кадров : 23,976 кадра/сек
    Цветовое пространство : YUV
    Субдискретизация насыщенности : 4:2:0
    Битовая глубина : 8 бит
    Тип развёртки : Прогрессивная
    Метод сжатия : С потерями
    Бит/(Пиксели*Кадры) : 0.287
    Размер потока : 1,53 Гбайт (68%)
    Библиотека кодирования : XviD 1.2.1 (UTC 2008-12-04)

    Аудио #1
    Идентификатор : 1
    Формат : AC-3
    Формат/Информация : Audio Coding 3
    Расширение режима : CM (complete main)
    Параметр Endianness формата : Big
    Идентификатор кодека : 2000
    Продолжительность : 1 ч. 55 м.
    Вид битрейта : Постоянный
    Битрейт : 448 Кбит/сек
    Каналы : 6 каналов
    Расположение каналов : Front: L C R, Side: L R, LFE
    Частота : 48,0 КГц
    Битовая глубина : 16 бит
    Метод сжатия : С потерями
    Размер потока : 369 Мбайт (16%)
    Выравнивание : Разделение по промежуткам
    Продолжительность промежутка : 42 мс. (1,00 видеокадр)
    Время предзагрузки промежутка : 500 мс.

    Аудио #2
    Идентификатор : 2
    Формат : AC-3
    Формат/Информация : Audio Coding 3
    Расширение режима : CM (complete main)
    Параметр Endianness формата : Big
    Идентификатор кодека : 2000
    Продолжительность : 1 ч. 55 м.
    Вид битрейта : Постоянный
    Битрейт : 448 Кбит/сек
    Каналы : 6 каналов
    Расположение каналов : Front: L C R, Side: L R, LFE
    Частота : 48,0 КГц
    Битовая глубина : 16 бит
    Метод сжатия : С потерями
    Размер потока : 369 Мбайт (16%)
    Выравнивание : Разделение по промежуткам
    Продолжительность промежутка : 42 мс. (1,00 видеокадр)
    Время предзагрузки промежутка : 500 мс.
    Скриншоты для ознакомления



    Залил: msltel
    Размер скачиваемого торрента: 2.93 GB (3149396234 Bytes)

    Команда 49: Огненная лестница / Ladder 49 (2004) BDRip by msltel | D, A скачать через торрент бесплатно
    загрузка...
    Рейтинг →
     (голосов: 1, оценка 5/5, голосовать можно 1 раз )

    Другие торренты по теме:

  • Команда Че (2012) WEB-DLRip от Getty торрент скачать бесплатно
  • Студенческая команда / Varsity Blues (1999) HDRip торрент скачать бесплатно
  • Команда мечты / The Dream Team (1989) DVDRip от Brazzass торрент скачать бесплатно
  • Команда Умизуми / Team Umizoomi (2010) SATRip | D торрент скачать бесплатно
  • Команда А / The A-Team (2010) BDRip 720p от HQ-ViDEO | Extended Cut торрент скачать бесплатно
  • Команда восемь (2012) WEB-DL 720p от GeneralFilm торрент скачать бесплатно
  • Команда Умизуми / Team Umizoomi (2012) DVB | D торрент скачать бесплатно
  • Команда / The Crew (2000) BDRip 720p от NovaLan торрент скачать бесплатно


    • Комментарии (0):

      Информация

      Информация

        Посетители, находящиеся в группе Гости, не могут оставлять комментарии в данной новости.

        ↓ Меню



        ↓ Опрос

        А Вы добавили сайт в закладки?
        Да
        Не


        Top 10 за неделю (Фильмы)