.
Авторизация | Регистрация
Хочешь лучшие торренты? Добавь свой email!
Добавить
» » Клуб Завтрак / The Breakfast Club (1985) HDRip | СТС скачать через торрент бесплатно




    Клуб Завтрак / The Breakfast Club (1985) HDRip | СТС скачать через торрент бесплатно

    Опубликовал: Админ | Дата: 27-02-2015, 11:09 | Просмотров: 344



    Детально о кино
    Русское название: Клуб Завтрак
    Русское название в мировом прокате: The Breakfast Club
    Создали в: 1985
    Категория жанра: драма
    Главный режиссер: Джон Хьюз / John Hughes
    Актеры: Эмилио Эстевез, Энтони Майкл Холл, Джадд Нельсон, Молли Рингуолд, Элли Шиди, Пол Глисон, Джон Капелос, Рон Дин, Тим Гэмбл, Мерседес Холл

    Сюжет фильма:
    Пятеро школьников в наказание за проступки вынуждены приехать в школу в выходной день и написать сочинение Кем вы себя представляете? Молодым людям с большим трудом удается разобраться в своих проблемах…



    Снималось в: США
    Киностудия: AM Films Channel Productions, Universal Studios
    Время просмотра: 01:37:04
    Перевод текста: Профессиональный (многоголосый, закадровый) СТС

    Файл
    Кодек для видео: XviD / MP3
    Качество фильма: HDRip
    Информация о видео: 688x368 (1.87:1), 23.976 fps, XviD build 47 ~933 kbps avg, 0.15 bit/pixel
    Информация о звуке: 48 kHz, MPEG Layer 3, 2 ch, ~128.00 kbps avg

    Скриншоты для ознакомления
    MediaInfo
    General
    Complete name : /torrent/The.Breakfast.Club.1985.HDRip.avi
    Format : AVI
    Format/Info : Audio Video Interleave
    File size : 744 MiB
    Duration : 1h 37mn
    Overall bit rate : 1 071 Kbps
    Writing application : VirtualDubMod 1.5.10.2 (build 2540/release)
    Writing library : VirtualDubMod build 2540/release

    Video
    ID : 0
    Format : MPEG-4 Visual
    Format profile : Advanced Simple@L5
    Format settings, BVOP : 1
    Format settings, QPel : No
    Format settings, GMC : No warppoints
    Format settings, Matrix : Default (MPEG)
    Codec ID : XVID
    Codec ID/Hint : XviD
    Duration : 1h 37mn
    Bit rate : 934 Kbps
    Width : 688 pixels
    Height : 368 pixels
    Display aspect ratio : 1.85:1
    Frame rate : 23.976 fps
    Color space : YUV
    Chroma subsampling : 4:2:0
    Bit depth : 8 bits
    Scan type : Progressive
    Compression mode : Lossy
    Bits/(Pixel*Frame) : 0.154
    Stream size : 648 MiB (87%)
    Writing library : XviD 1.2.0.dev47 (UTC 2006-11-01)

    Audio
    ID : 1
    Format : MPEG Audio
    Format version : Version 1
    Format profile : Layer 3
    Codec ID : 55
    Codec ID/Hint : MP3
    Duration : 1h 37mn
    Bit rate mode : Constant
    Bit rate : 128 Kbps
    Channel(s) : 2 channels
    Sampling rate : 48.0 KHz
    Compression mode : Lossy
    Stream size : 88.9 MiB (12%)
    Alignment : Aligned on interleaves
    Interleave, duration : 42 ms (1.00 video frame)
    Interleave, preload duration : 504 ms

    Размер скачиваемого торрента: 743.62 MB (779739136 Bytes)

    Клуб Завтрак / The Breakfast Club (1985) HDRip | СТС скачать через торрент бесплатно
    загрузка...
    Рейтинг →
     (голосов: 1, оценка 5/5, голосовать можно 1 раз )

    Другие торренты по теме:

  • Клуб выходного дня / Клуб Завтрак / The Breakfast Club (1985) BDRip-AVC | L1
  • Клуб Завтрак / The Breakfast Club (1985) BDRip-AVC от MediaClub | P
  • Клуб Завтрак / The Breakfast Club (1985) BDRip 720p от HQ-ViDEO | P


    • Комментарии (0):

      Информация

      Информация

        Посетители, находящиеся в группе Гости, не могут оставлять комментарии в данной новости.

        ↓ Меню



        ↓ Опрос

        А Вы добавили сайт в закладки?
        Да
        Не


        Top 10 за месяц (Фильмы)