.
Авторизация | Регистрация
Хочешь лучшие торренты? Добавь свой email!
Добавить




2046 / 2046 (2004) DVDRip скачать через торрент бесплатно

Опубликовал: Админ | Дата: 27-02-2015, 11:09 | Просмотров: 308



Детально о кино
Русское название: 2046
Русское название в мировом прокате: 2046
Создали в: 2004
Категория жанра: фантастика, фэнтези, драма, мелодрама
Главный режиссер: Вонг Кар-Вай / Wong Kar-Wai
Актеры: Тони Люн Чу Вай, Ли Гонг, Фэй Вонг, Такуя Кимура, Цзии Чжан, Карина Лау, Цзи Донг, Мэгги Чун, Пин Лам Сиу, Ванг Сум

Сюжет фильма:
Он был писателем. Он думал, что пишет о будущем, а на самом деле он писал о прошлом. В его книге загадочный поезд время от времени отправлялся в 2046 год, и все, кто на него садились, стремились погрузиться в утраченное прошлое. Говорили, что в 2046 никогда ничего не меняется.

Никто не знал наверняка, так ли это, потому что уехавшие туда никогда не возвращались, кроме одного человека. Он съездил и предпочел вернуться. Он хотел измениться…



Снималось в: Гонконг, Китай, Франция, Италия, Германия
Киностудия: Sony Pictures Classics (North America), Mei Ah (Hong Kong), Tartan Films (United Kingdom), Seville Pictures/Warner Home Video (Canada)
Время просмотра: 02:02:53
Перевод текста: Профессиональный (многоголосый закадровый)

Файл
Кодек для видео: XviD / MP3
Качество фильма: DVDRip
Информация о видео: 688x288, 25.000 fps, XviD ~726 kbps avg, 0.147 bit/pixel
Информация о звуке:
Аудио 1: 48 kHz, MPEG Layer 3, 2 ch, ~112 kbps avg - русский
Аудио 2: 48 kHz, MPEG Layer 3, 2 ch, ~112 kbps avg - китайский (отдельным файлом)
Субтитры: Русские (одельным файлом) softsub (SRT)

Скриншоты для ознакомления
MediaInfo
General
Complete name : F:video2046 TF1 VideoDVD12046.avi
Format : AVI
Format/Info : Audio Video Interleave
File size : 745 MiB
Duration : 2h 2mn
Overall bit rate : 848 Kbps
Writing application : VirtualDubMod 1.5.10.2 (build 2540/release)
Writing library : VirtualDubMod build 2540/release

Video
ID : 0
Format : MPEG-4 Visual
Format profile : Advanced Simple@L5
Format settings, BVOP : Yes
Format settings, QPel : No
Format settings, GMC : No warppoints
Format settings, Matrix : Custom
Codec ID : XVID
Codec ID/Hint : XviD
Duration : 2h 2mn
Bit rate : 726 Kbps
Width : 688 pixels
Height : 288 pixels
Display aspect ratio : 2.35:1
Frame rate : 25.000 fps
Color space : YUV
Chroma subsampling : 4:2:0
Bit depth : 8 bits
Scan type : Progressive
Bits/(Pixel*Frame) : 0.147
Stream size : 638 MiB (86%)
Writing library : XviD 1.2.1 (UTC 2008-12-04)

Audio
ID : 1
Format : MPEG Audio
Format version : Version 1
Format profile : Layer 3
Codec ID : 55
Codec ID/Hint : MP3
Duration : 2h 2mn
Bit rate mode : Constant
Bit rate : 112 Kbps
Channel(s) : 2 channels
Sampling rate : 48.0 KHz
Stream size : 98.4 MiB (13%)
Alignment : Aligned on interleaves
Interleave, duration : 40 ms (1.00 video frame)
Interleave, preload duration : 504 ms
Writing library : LAME3.98r
Encoding settings : -m s -V 4 -q 2 -lowpass 15.6 -b 112

Размер скачиваемого торрента: 843.50 MB (884475543 Bytes)

2046 / 2046 (2004) DVDRip скачать через торрент бесплатно
загрузка...
Рейтинг →
 (голосов: 1, оценка 5/5, голосовать можно 1 раз )

Другие торренты по теме:

  • OST - 2046 (2005) MP3


    • Комментарии (0):

      Информация

      Информация

        Посетители, находящиеся в группе Гости, не могут оставлять комментарии в данной новости.

        ↓ Меню



        ↓ Опрос

        А Вы добавили сайт в закладки?
        Да
        Не


        Top 10 за месяц (Фильмы)