.
Авторизация | Регистрация
Хочешь лучшие торренты? Добавь свой email!
Добавить
» » Малавита / The Family (2013) BDRip 1080p | D | Лицензия скачать через торрент бесплатно




    Малавита / The Family (2013) BDRip 1080p | D | Лицензия скачать через торрент бесплатно

    Опубликовал: Админ | Дата: 27-02-2015, 11:09 | Просмотров: 296



    Детально о кино
    Русское название: Малавита
    Русское название в мировом прокате: The Family
    Создали в: 2013
    Категория жанра: Комедия, криминал
    Снималось в: США, Франция , EuropaCorp, Malavita, Relativity Media
    Главный режиссер: Люк Бессон
    Актеры: Роберт Де Ниро, Мишель Пфайффер, Томми Ли Джонс, Дианна Агрон, Джон Фреда, Рикардо Сорберо, Доминик Кьянезе, Дэвид Белль, Джон Д’Лео, Джино Кафарелли

    Сюжет фильма: На тихой улочке провинциального французского городка поселился писатель по фамилии Блейк, со своим семейством и собакой Малавитой. На этом многовековое спокойствие города закончилось. Почему сгорел местный супермаркет? Чем рискует медлительный водопроводчик? Что лежит в рюкзаке у милого парня в бежевых бриджах? Никто и представить себе не мог, что на самом деле мистер Блейк — бывший глава мафии, которого власти прячут здесь от преследования. И вот в городок приезжают люди Коза Ностры…



    Файл
    Качество фильма: BDRip (1080p)
    Информация о видео: MPEG-4 AVC, 10.6 Mбит/с, 1920x804
    Информация о звуке: Русский (DTS, 6 ch, 1510 Кбит/с), (AC3, 6 ch, 640 Кбит/с)
    Размер скачиваемого торрента: 9.52 ГБ
    Время просмотра: 01:46:56
    Перевод текста: Дублированный лицензия
    MediaInfo
    Общее
    Уникальный идентификатор : 195828314422973444418410549883968869492 (0x93532956234613F8AA82FBE50852D474)
    Полное имя : D:New folderMalavita.2013.1080p.CMEGRoup.mkv
    Формат : Matroska
    Версия формата : Version 2
    Размер файла : 9,52 Гбайт
    Продолжительность : 1 ч. 46 м.
    Общий поток : 12,7 Мбит/сек
    Название фильма : CMEGRoup
    Дата кодирования : UTC 2013-12-02 00:05:51
    Программа кодирования : mkvmerge v6.3.0 (;You can;t stop me!;) built on Jun 28 2013 20:09:41
    Библиотека кодирования : libebml v1.3.0 libmatroska v1.4.0

    Видео
    Идентификатор : 1
    Формат : AVC
    Формат/Информация : Advanced Video Codec
    Профиль формата : High@L4.1
    Параметр CABAC формата : Да
    Параметр ReFrames формата : 4 кадра
    Идентификатор кодека : V_MPEG4/ISO/AVC
    Продолжительность : 1 ч. 46 м.
    Битрейт : 10,6 Мбит/сек
    Ширина : 1920 пикселей
    Высота : 804 пикселя
    Соотношение сторон : 2,40:1
    Режим частоты кадров : Постоянный
    Частота кадров : 25,000 кадров/сек
    Цветовое пространство : YUV
    Субдискретизация насыщенности : 4:2:0
    Битовая глубина : 8 бит
    Тип развёртки : Прогрессивная
    Бит/(Пиксели*Кадры) : 0.275
    Размер потока : 7,73 Гбайт (81%)
    Библиотека кодирования : x264 core 138 r2358 9e941d1
    Настройки программы : cabac=1 / ref=4 / deblock=1:-3:-3 / analyse=0x3:0x113 / me=umh / subme=10 / psy=1 / psy_rd=1.00:0.00 / mixed_ref=1 / me_range=32 / chroma_me=1 / trellis=2 / 8x8dct=1 / cqm=0 / deadzone=21,11 / fast_pskip=1 / chroma_qp_offset=-2 / threads=6 / lookahead_threads=1 / sliced_threads=0 / nr=0 / decimate=1 / interlaced=0 / bluray_compat=0 / constrained_intra=0 / bframes=5 / b_pyramid=2 / b_adapt=1 / b_bias=0 / direct=2 / weightb=1 / open_gop=0 / weightp=2 / keyint=250 / keyint_min=25 / scenecut=40 / intra_refresh=0 / rc_lookahead=40 / rc=2pass / mbtree=1 / bitrate=10600 / ratetol=1.0 / qcomp=0.60 / qpmin=0 / qpmax=69 / qpstep=4 / cplxblur=20.0 / qblur=0.5 / vbv_maxrate=62500 / vbv_bufsize=78125 / nal_hrd=none / ip_ratio=1.40 / aq=1:1.00 / zones=151429,160420,q=40
    Язык : English
    Default : Да
    Forced : Нет

    Аудио #1
    Идентификатор : 2
    Формат : DTS
    Формат/Информация : Digital Theater Systems
    Режим : 16
    Параметр Endianness формата : Big
    Идентификатор кодека : A_DTS
    Продолжительность : 1 ч. 46 м.
    Вид битрейта : Постоянный
    Битрейт : 1509 Кбит/сек
    Каналы : 6 каналов
    Расположение каналов : Front: L C R, Side: L R, LFE
    Частота : 48,0 КГц
    Битовая глубина : 24 бит
    Метод сжатия : С потерями
    Размер потока : 1,13 Гбайт (12%)
    Язык : Russian
    Default : Да
    Forced : Нет

    Аудио #2
    Идентификатор : 3
    Формат : AC-3
    Формат/Информация : Audio Coding 3
    Расширение режима : CM (complete main)
    Параметр Endianness формата : Big
    Идентификатор кодека : A_AC3
    Продолжительность : 1 ч. 46 м.
    Вид битрейта : Постоянный
    Битрейт : 640 Кбит/сек
    Каналы : 6 каналов
    Расположение каналов : Front: L C R, Side: L R, LFE
    Частота : 48,0 КГц
    Битовая глубина : 16 бит
    Метод сжатия : С потерями
    Размер потока : 490 Мбайт (5%)
    Язык : Russian
    Default : Нет
    Forced : Нет

    Меню
    00:00:00.000 : en:00:00:00.000
    00:08:29.160 : en:00:08:29.160
    00:14:44.760 : en:00:14:44.760
    00:24:45.160 : en:00:24:45.160
    00:31:49.640 : en:00:31:49.640
    00:40:00.760 : en:00:40:00.760
    00:47:46.200 : en:00:47:46.200
    00:56:08.440 : en:00:56:08.440
    01:01:50.880 : en:01:01:50.880
    01:12:13.720 : en:01:12:13.720
    01:19:14.360 : en:01:19:14.360
    01:32:49.520 : en:01:32:49.520


    Скриншоты для ознакомления




    Релиз подготовил:
    Размер скачиваемого торрента: 9.52 GB (10223709141 Bytes)

    Малавита / The Family (2013) BDRip 1080p | D | Лицензия скачать через торрент бесплатно
    загрузка...
    Рейтинг →
     (голосов: 1, оценка 5/5, голосовать можно 1 раз )

    Другие торренты по теме:

  • Малавита / The Family (2013) CAMRip от INTERCINEMA | D скачать бесплатно через торрент
  • Малавита / The Family (2013) CAMRip-AVC | D, A скачать через торрент бесплатно
  • Малавита / The Family (2013) DVDRip | Гоблин
  • Малавита / The Family (2013) DVDRip от INTERCINEMA | Чистый звук
  • Малавита / The Family (2013) DVDRip | D | Чистый звук скачать через торрент бесплатно
  • Малавита / The Family (2013) DVD5 | Лицензия
  • Малавита / The Family (2013) DVDRip-AVC | Лицензия скачать через торрент бесплатно
  • Малавита / The Family (2013) DVDRip-AVC от New-Team | D | Лицензия скачать через торрент бесплатно


    • Комментарии (0):

      Информация

      Информация

        Посетители, находящиеся в группе Гости, не могут оставлять комментарии в данной новости.

        ↓ Меню



        ↓ Опрос

        А Вы добавили сайт в закладки?
        Да
        Не


        Top 10 за месяц (Фильмы)