.
Авторизация | Регистрация
» » Лучшая охрана / Взлом / Breaking In (2012) DVDRip | DreamRecords скачать через торрент бесплатно




    Лучшая охрана / Взлом / Breaking In (2012) DVDRip | DreamRecords скачать через торрент бесплатно

    Опубликовал: Админ | Дата: 27-02-2015, 11:09 | Просмотров: 228



    Детально о кино
    Русское название: Лучшая охрана / Взлом
    Русское название в мировом прокате: Breaking In
    Создали в: 2012
    Категория жанра: комедия
    Главный режиссер: Сет Гордон, Фред Сэвэдж
    Актеры: Брэд Харрисон, Мэган Мьюлали, Альфонсо МакУэлли, Эрин Ричардс, Одет Анабель, Дженнифер Ирвин и Кристиан Слэйтер

    Сюжет фильма:
    Компания по продаже высоко технологичных охранных систем использует самые необычные и сомнительные методы продаж.



    Снималось в: США
    Киностудия: Sony Pictures Television, Fox
    Время просмотра: ~00:21:00 серия
    Перевод текста: Любительский двухголосый закадровый DreamRecords

    Файл
    Кодек для видео: XviD / MP3
    Качество фильма: DVDRip
    Информация о видео: 624x352, 23.976 fps, 1 022 Kbps, 0.194 (bit/pixel)
    Информация о звуке: MP3, 48.0 KHz, 2 ch, 192 Kbps

    Скриншоты для ознакомления
    MediaInfo
    General
    Complete name : /torrent/Взлом (2 сезон любимого сериала)/Breaking_in.S02E01.DVDRip.XviD.DreamRecords.avi
    Format : AVI
    Format/Info : Audio Video Interleave
    File size : 184 MiB
    Duration : 21mn 43s
    Overall bit rate : 1 186 Kbps
    Writing application : VirtualDubModRus 1.5.10.2 (build 2542/release)
    Writing library : VirtualDubMod build 2542/release

    Video
    ID : 0
    Format : MPEG-4 Visual
    Format profile : Advanced Simple@L5
    Format settings, BVOP : 2
    Format settings, QPel : No
    Format settings, GMC : No warppoints
    Format settings, Matrix : Default (H.263)
    Muxing mode : Packed bitstream
    Codec ID : XVID
    Codec ID/Hint : XviD
    Duration : 21mn 43s
    Bit rate : 984 Kbps
    Width : 624 pixels
    Height : 352 pixels
    Display aspect ratio : 16:9
    Frame rate : 23.976 fps
    Color space : YUV
    Chroma subsampling : 4:2:0
    Bit depth : 8 bits
    Scan type : Progressive
    Compression mode : Lossy
    Bits/(Pixel*Frame) : 0.187
    Stream size : 153 MiB (83%)
    Writing library : XviD 64

    Audio
    ID : 1
    Format : MPEG Audio
    Format version : Version 1
    Format profile : Layer 3
    Codec ID : 55
    Codec ID/Hint : MP3
    Duration : 21mn 42s
    Bit rate mode : Constant
    Bit rate : 192 Kbps
    Channel(s) : 2 channels
    Sampling rate : 48.0 KHz
    Compression mode : Lossy
    Stream size : 29.8 MiB (16%)
    Alignment : Aligned on interleaves
    Interleave, duration : 42 ms (1.00 video frame)
    Interleave, preload duration : 504 ms

    Размер скачиваемого торрента: 2.36 GB (2533853184 Bytes)

    Лучшая охрана / Взлом / Breaking In (2012) DVDRip | DreamRecords скачать через торрент бесплатно
    загрузка...
    Рейтинг →
     (голосов: 1, оценка 4/5, голосовать можно 1 раз )

    Другие торренты по теме:

  • Взлом / Лучшая охрана / Breaking In (2012) DVDRip | DreamRecords торрент скачать бесплатно


    • Комментарии (0):

      Информация

      Информация

        Посетители, находящиеся в группе Гости, не могут оставлять комментарии в данной новости.

        ↓ Меню



        ↓ Опрос

        А Вы добавили сайт в закладки?
        Да
        Не


        Top 10 за неделю (Фильмы)