.
Авторизация | Регистрация
Хочешь лучшие торренты? Добавь свой email!
Добавить
» » Братство: Взлет геймеров / Rise of the Fellowship / The Fellows Hip: Rise of the Gamers (2013) HDRip | НТВ торрент скачать бесплатно




    Братство: Взлет геймеров / Rise of the Fellowship / The Fellows Hip: Rise of the Gamers (2013) HDRip | НТВ торрент скачать бесплатно

    Опубликовал: Админ | Дата: 27-02-2015, 11:09 | Просмотров: 295


    Детально о кино
    Русское название: Братство: Взлет геймеров
    Русское название в мировом прокате: Rise of the Fellowship / The Fellows Hip: Rise of the Gamers
    Создали в: 2013
    Категория жанра: фэнтези, комедия, приключения
    Главный режиссер: Рон Ньюком
    Актеры: Джастин Мо, Джейми Белл, Коул Мэтсон, Эмма Эрнест, Вульф Дж. Шерилл, Эрик Гарнер, Даг Хендерсон, Дрю Трементоззи

    Описание:
    Рэндалл Дули работает в магазине компьютерных игр и все свое свободное время тратит на онлайн-игры. Старший брат постоянно над ним подшучивает, мама его не понимает, к тому же он безнадежно влюблен в капитаншу команды чирлидеров. Однажды Рэндалл узнает, что во Флориде пройдет чемпионат по игре Властелин колец. Он едет туда с твердым намерением победить.




    Снималось в: США / Opening Act Productions
    Время просмотра: 01:34:18
    Тип перевода: Профессиональное (многоголосное) НТВ

    Файл
    Тип видео: AVI (XviD)
    Качество: HDRip
    Информация о видео: 1790 kb/s, 720x304, 23,976 fps
    Информация о звуке: AC3, 192 (2 ch)

    MediaInfo
    Общее
    Полное имя : D:ФильмыBratstvo.vzlet.gejmerov.2013.P.HDRip.1400MB.avi
    Формат : AVI
    Формат/Информация : Audio Video Interleave
    Размер файла : 1,37 Гбайт
    Продолжительность : 1 ч. 38 м.
    Общий поток : 1992 Кбит/сек
    Программа кодирования : VirtualDubMod 1.5.10.2 (build 2540/release)
    Библиотека кодирования : VirtualDubMod build 2540/release

    Видео
    Идентификатор : 0
    Формат : MPEG-4 Visual
    Профиль формата : Advanced Simple@L5
    Параметр BVOP формата : 2
    Параметр QPel формата : Нет
    Параметр GMC формата : Без точки перехода
    Параметр матрицы формата : Default (MPEG)
    Идентификатор кодека : XVID
    Идентификатор кодека/Подсказка : XviD
    Продолжительность : 1 ч. 38 м.
    Битрейт : 1791 Кбит/сек
    Ширина : 720 пикселей
    Высота : 304 пикселя
    Соотношение сторон : 2,35:1
    Частота кадров : 23,976 кадра/сек
    Цветовое пространство : YUV
    Субдискретизация насыщенности : 4:2:0
    Битовая глубина : 8 бит
    Тип развёртки : Прогрессивная
    Метод сжатия : С потерями
    Бит/(Пиксели*Кадры) : 0.341
    Размер потока : 1,23 Гбайт (90%)
    Библиотека кодирования : XviD 1.2.1 (UTC 2008-12-04)

    Аудио
    Идентификатор : 1
    Формат : AC-3
    Формат/Информация : Audio Coding 3
    Расширение режима : CM (complete main)
    Параметр Endianness формата : Big
    Идентификатор кодека : 2000
    Продолжительность : 1 ч. 38 м.
    Вид битрейта : Постоянный
    Битрейт : 192 Кбит/сек
    Каналы : 2 канала
    Расположение каналов : Front: L R
    Частота : 48,0 КГц
    Битовая глубина : 16 бит
    Метод сжатия : С потерями
    Размер потока : 135 Мбайт (10%)
    Выравнивание : Разделение по промежуткам
    Продолжительность промежутка : 42 мс. (1,00 видеокадр)
    Время предзагрузки промежутка : 500 мс.


    Залил: rejik
    Размер скачиваемого торрента: 1.37 GB (1467635712 Bytes)

    Братство: Взлет геймеров / Rise of the Fellowship / The Fellows Hip: Rise of the Gamers (2013) HDRip | НТВ торрент скачать бесплатно
    загрузка...
    Рейтинг →
     (голосов: 1, оценка 4/5, голосовать можно 1 раз )

    Другие торренты по теме:

  • Братство: Взлет геймеров / The Fellows Hip: Rise of the Gamers (2012) SATRip от ClubTorrent | P 2
  • Братство: Взлет геймеров / The Fellows Hip: Rise of the Gamers (2013) HDTVRip-AVC от MediaClub | P2
  • Братство: Взлет геймеров / The Fellows Hip: Rise of the Gamers (2013) HDTVRip от MediaClub | P2
  • Братство: Взлет геймеров / The Fellows Hip: Rise of the Gamers (2013) HDTVRip 720p от MediaClub | P2


    • Комментарии (0):

      Информация

      Информация

        Посетители, находящиеся в группе Гости, не могут оставлять комментарии в данной новости.

        ↓ Меню



        ↓ Опрос

        А Вы добавили сайт в закладки?
        Да
        Не


        Top 10 за месяц (Фильмы)