.
Авторизация | Регистрация
Хочешь лучшие торренты? Добавь свой email!
Добавить




Бомба (2013) WEB-DLRip торрент скачать бесплатно

Опубликовал: Админ | Дата: 27-02-2015, 11:09 | Просмотров: 363



Детально о кино
Русское название: Бомба
Создали в: 2013
Категория жанра: Мелодрама, боевик, история, драма
Главный режиссер: Олег Фесенко
Актеры: Ирина Крутик, Алексей Бардуков, Ольга Арнтгольц, Антон Соколов (II), Андрей Панин, Анатолий Кот, Ольга Сутулова, Александр Наумов (II), Антон Соколов (II), Павел Алдошин, Денис Мартынов, Игорь Писный, Владимир Мельник, Андрей Джеджула, Валерий Шалыга, Андрей Кронглевский

Сюжет фильма:
1941 год. Жизнь студента физмеха Ленинградского индустриального института круто развернулась за один день, перед самой весенней сессией. Иван Гучков попал на карандаш майору Лобанову – начальнику отдела Разведывательного управления Ленинградского военного округа. Несколько месяцев спустя в советское ГРУ поступают сведения, что в США полным ходом идет секретная разработка мощнейшего атомного боеприпаса. Советская разведка принимает решение завербовать Ивана в Неваду на объект Х - завод по производству обогащенного урана. Чтобы кандидатура Гучкова не вызывала подозрений, ему меняют не только имя и внешность, но и биографию. Иван перевоплощается в пропавшего без вести курсанта-морпеха Стенли Либера и теперь, будучи объявлен выжившим, он должен жениться на невесте Либера Шейле. Девушка самоотверженно делит с Иваном все его невзгоды и даже решает отправиться с ним в Неваду. Постепенно Иван забывает о собственной невесте Лике, оставшейся в Советском Союзе, да и неизвестно выжила ли она в блокадном Ленинграде. Но жизнь разведчика непредсказуема: Шейлу, а затем Ивана арестовывают и депортируют в Советский Союз. Там Гучкову придется пройти все круги ада, прежде чем приступить к поискам тех, кто ему дорог, и того, что ему нужно.




Снималось в: Украина
Киностудия: Star Media
Время просмотра: 3 х ~ 00:44:00
Перевод текста: Не требуется

Файл
Кодек для видео: XviD
Качество фильма: WEB-DLRip (Исх. WEB-DL 1080p)
Информация о видео: 624x352 (1.77:1), 25 fps, XviD build 50 ~1500 kbps avg, 0.27 bit/pixel
Информация о звуке: 44.100 kHz, MPEG Layer 3, 2 ch, ~128.00 kbps avg
Субтитры: нет

Семпл

MediaInfo

Общее
Полное имя : S:ФильмыБомба. 2013. WEB-DLRipБомба. 3 серия. 2013. WEB-DLRip.avi
Формат : AVI
Формат/Информация : Audio Video Interleave
Размер файла : 508 Мбайт
Продолжительность : 43 м.
Общий поток : 1639 Кбит/сек
Программа кодирования : VirtualDubMod 1.5.10.3 | www.virtualdub-fr.org || (build 2550/release)
Библиотека кодирования : VirtualDubMod build 2550/release

Видео
Идентификатор : 0
Формат : MPEG-4 Visual
Профиль формата : Advanced Simple@L5
Параметр BVOP формата : 2
Параметр QPel формата : Нет
Параметр GMC формата : Без точки перехода
Параметр матрицы формата : Выборочная
Идентификатор кодека : XVID
Идентификатор кодека/Подсказка : XviD
Продолжительность : 43 м.
Битрейт : 1501 Кбит/сек
Ширина : 624 пикс.
Высота : 352 пикс.
Соотношение сторон : 16:9
Частота кадров : 25,000 кадр/сек
Цветовое пространство : YUV
Подвыборка цветности : 4:2:0
Битовая глубина : 8 бит
Тип развёртки : Прогрессивная
Метод сжатия : С потерями
Бит/(Пиксели*Кадры) : 0.273
Размер потока : 465 Мбайт (92%)
Библиотека кодирования : XviD 1.2.1 (UTC 2008-12-04)

Аудио
Идентификатор : 1
Формат : MPEG Audio
Версия формата : Version 1
Профиль формата : Layer 3
Идентификатор кодека : 55
Идентификатор кодека/Подсказка : MP3
Продолжительность : 43 м.
Вид битрейта : Постоянный
Битрейт : 128 Кбит/сек
Каналы : 2 канала
Частота : 44,1 КГц
Метод сжатия : С потерями
Размер потока : 39,7 Мбайт (8%)
Выравнивание : Разделение по промежуткам
Продолжительность промежутка : 40 мс. (1,00 видеокадр)
Время предзагрузки промежутка : 500 ms
Библиотека кодирования : LAME3.99r
Залил: Losk
Размер скачиваемого торрента: 1.51 GB (1618016256 Bytes)


Бомба (2013) WEB-DLRip торрент скачать бесплатно
загрузка...
Рейтинг →
 (голосов: 1, оценка 3/5, голосовать можно 1 раз )

Другие торренты по теме:

  • Трансгенизация - генетическая бомба (2007) DVD5
  • Сборник - Бомба Года: Танцевальный Выпуск 50 50 Весна (2013) MP3
  • VA - Хитовая бомба года #2 (2013) mp3
  • Сборник - Праздничная бомба года. Выпуск 2 (2013) MP3
  • Бомба / Ginger Rosa (2012) HDRip | L1
  • Дмитрий Родин - Бомба архитектора: полное видео руководство по Autocad Architecture. Обучающий видеокурс (2012) PCRec
  • Человек-бомба / Human Timebomb (1996) DVD9 | A
  • VA - Пляжная бомба года №1 (2013) MP3


    • Комментарии (0):

      Информация

      Информация

        Посетители, находящиеся в группе Гости, не могут оставлять комментарии в данной новости.

        ↓ Меню



        ↓ Опрос

        А Вы добавили сайт в закладки?
        Да
        Не


        Top 10 за месяц (Фильмы)