.
Авторизация | Регистрация
» » Ученик чародея / The Sorcerers Apprentice (2010) BDRip by msltel | D, A скачать через торрент бесплатно




    Ученик чародея / The Sorcerers Apprentice (2010) BDRip by msltel | D, A скачать через торрент бесплатно

    Опубликовал: Админ | Дата: 27-02-2015, 11:09 | Просмотров: 275



    Русское название: Ученик чародея
    Русское название в мировом прокате: The Sorcerer;s Apprentice
    Создали в: 2010
    Категория жанра: Фэнтези, боевик, драма, комедия, приключения
    Снималось в: США, Walt Disney Pictures
    Главный режиссер: Джон Тертелтауб
    Актеры: Николас Кейдж, Джей Барушель, Альфред Молина, Тереза Палмер, Тоби Кеббелл, Омар Бенсон Миллер, Моника Беллуччи, Элис Крайдж, Джейк Черри, Джеймс А. Стефенс, Грегори Ву, Вэй Чинг Хо, Джейсон Р. Мур, Роберт Капрон, Пейтон Лист, Сандор Текси, Марика Дацюк, Николь Эхингер, Адриан Ленокс, Этан Пек, Мэниш Патель, Оскар А. Колон, Джо Лиси, Уильям Дэвлин, Виктор Круз, Мелисса Галлахер, Фитц Хенли

    Сюжет фильма: Манхэттен. Наши дни. Мастер магии Бальтазар Блэйк пытается защитить Нью-Йорк от своего старого врага Максима Хорвата — злобного колдуна с самыми чёрными планами. Однако Бальтазар чувствует, что не справится один, и ему нужен помощник. На эту роль он выбирает самого обычного парня Дэйва, который вовсе не хочет спасать мир. Однако ему придётся пройти ускоренный курс магии и вступить в битву.

    Качество фильма: BDRip
    Размер скачиваемого торрента: 2.58 ГБ
    Время просмотра: 01:49:02

    Информация о видео: XviD, 1578 Кбит/с, 720x304
    Информация о звуке 1: русский, 48 kHz, AC3, 6 ch, 448 kbps avg, Авторский, Андрей Гаврилов
    Информация о звуке 2: русский, 48 kHz, AC3, 6 ch, 448 kbps avg, Авторский, Александр Дасевич

    Внешние файлы
    Информация о звуке: русский, 48 kHz, AC3, 6 ch, 448 kbps avg, Дублированный
    Информация о звуке: английский, 48 kHz, AC3, 6 ch, 448 kbps avg, Оригинал
    Субтитры: русские
    Субтитры: английские

    Исходник: Jiraya87 (HDTracker)

    Сравнение с исходником



    MediaInfo
    Общее
    Полное имя : E:VideoUchenik.charodeja.2010.XviD.BDRipUchenik.charodeja.2010.DUB.rus.ac3
    Формат : AC-3
    Формат/Информация : Audio Coding 3
    Размер файла : 349 Мбайт
    Продолжительность : 1 ч. 49 м.
    Режим общего битрейта : Постоянный
    Общий поток : 448 Кбит/сек

    Аудио
    Формат : AC-3
    Формат/Информация : Audio Coding 3
    Расширение режима : CM (complete main)
    Параметр Endianness формата : Big
    Продолжительность : 1 ч. 49 м.
    Вид битрейта : Постоянный
    Битрейт : 448 Кбит/сек
    Каналы : 6 каналов
    Расположение каналов : Front: L C R, Side: L R, LFE
    Частота : 48,0 КГц
    Битовая глубина : 16 бит
    Метод сжатия : С потерями
    Размер потока : 349 Мбайт (100%)

    Общее
    Полное имя : E:VideoUchenik.charodeja.2010.XviD.BDRipUchenik.charodeja.2010.eng.srt
    Формат : SubRip
    Размер файла : 82,5 Кбайт

    Текст
    Формат : SubRip
    Метод сжатия : Без потерь

    Общее
    Полное имя : E:VideoUchenik.charodeja.2010.XviD.BDRipUchenik.charodeja.2010.Original.eng.ac3
    Формат : AC-3
    Формат/Информация : Audio Coding 3
    Размер файла : 349 Мбайт
    Продолжительность : 1 ч. 49 м.
    Режим общего битрейта : Постоянный
    Общий поток : 448 Кбит/сек

    Аудио
    Формат : AC-3
    Формат/Информация : Audio Coding 3
    Расширение режима : CM (complete main)
    Параметр Endianness формата : Big
    Продолжительность : 1 ч. 49 м.
    Вид битрейта : Постоянный
    Битрейт : 448 Кбит/сек
    Каналы : 6 каналов
    Расположение каналов : Front: L C R, Side: L R, LFE
    Частота : 48,0 КГц
    Битовая глубина : 16 бит
    Метод сжатия : С потерями
    Размер потока : 349 Мбайт (100%)

    Общее
    Полное имя : E:VideoUchenik.charodeja.2010.XviD.BDRipUchenik.charodeja.2010.rus.srt
    Формат : SubRip
    Размер файла : 105 Кбайт

    Текст
    Формат : SubRip
    Метод сжатия : Без потерь

    Общее
    Полное имя : E:VideoUchenik.charodeja.2010.XviD.BDRipUchenik.charodeja.2010.XviD.BDRip.avi
    Формат : AVI
    Формат/Информация : Audio Video Interleave
    Размер файла : 1,89 Гбайт
    Продолжительность : 1 ч. 49 м.
    Общий поток : 2488 Кбит/сек
    Программа кодирования : VirtualDubMod 1.5.10.2 (build 2540/release)
    Библиотека кодирования : VirtualDubMod build 2540/release

    Видео
    Идентификатор : 0
    Формат : MPEG-4 Visual
    Профиль формата : Advanced Simple@L5
    Параметр BVOP формата : 1
    Параметр QPel формата : Нет
    Параметр GMC формата : Без точки перехода
    Параметр матрицы формата : Default (H.263)
    Режим смешивания : Сжатый битовый поток
    Идентификатор кодека : XVID
    Идентификатор кодека/Подсказка : XviD
    Продолжительность : 1 ч. 49 м.
    Битрейт : 1578 Кбит/сек
    Ширина : 720 пикселей
    Высота : 304 пикселя
    Соотношение сторон : 2,35:1
    Частота кадров : 23,976 кадра/сек
    Цветовое пространство : YUV
    Субдискретизация насыщенности : 4:2:0
    Битовая глубина : 8 бит
    Тип развёртки : Прогрессивная
    Метод сжатия : С потерями
    Бит/(Пиксели*Кадры) : 0.301
    Размер потока : 1,20 Гбайт (63%)
    Библиотека кодирования : XviD 1.2.1 (UTC 2008-12-04)

    Аудио #1
    Идентификатор : 1
    Формат : AC-3
    Формат/Информация : Audio Coding 3
    Расширение режима : CM (complete main)
    Параметр Endianness формата : Big
    Идентификатор кодека : 2000
    Продолжительность : 1 ч. 49 м.
    Вид битрейта : Постоянный
    Битрейт : 448 Кбит/сек
    Каналы : 6 каналов
    Расположение каналов : Front: L C R, Side: L R, LFE
    Частота : 48,0 КГц
    Битовая глубина : 16 бит
    Метод сжатия : С потерями
    Размер потока : 349 Мбайт (18%)
    Выравнивание : Разделение по промежуткам
    Продолжительность промежутка : 42 мс. (1,00 видеокадр)
    Время предзагрузки промежутка : 500 мс.

    Аудио #2
    Идентификатор : 2
    Формат : AC-3
    Формат/Информация : Audio Coding 3
    Расширение режима : CM (complete main)
    Параметр Endianness формата : Big
    Идентификатор кодека : 2000
    Продолжительность : 1 ч. 49 м.
    Вид битрейта : Постоянный
    Битрейт : 448 Кбит/сек
    Каналы : 6 каналов
    Расположение каналов : Front: L C R, Side: L R, LFE
    Частота : 48,0 КГц
    Битовая глубина : 16 бит
    Метод сжатия : С потерями
    Размер потока : 349 Мбайт (18%)
    Выравнивание : Разделение по промежуткам
    Продолжительность промежутка : 42 мс. (1,00 видеокадр)
    Время предзагрузки промежутка : 500 мс.
    Скриншоты для ознакомления



    Залил: msltel
    Размер скачиваемого торрента: 2.58 GB (2767729930 Bytes)

    Ученик чародея / The Sorcerers Apprentice (2010) BDRip by msltel | D, A скачать через торрент бесплатно
    загрузка...
    Рейтинг →
     (голосов: 1, оценка 3/5, голосовать можно 1 раз )

    Другие торренты по теме:

  • Ученик чародея / The Sorcerers Apprentice (2010) BDRip 1080p от NoLimits-Team торрент скачать бесплатно
  • Ученик чародея / The Sorcerers Apprentice (2010) BDRip 720p by msltel | D, A скачать через торрент бесплатно
  • Ученик чародея / The Sorcerers Apprentice (2010) BDRip 1080p by msltel | D, A скачать через торрент бесплатно
  • Ученик чародея / The Sorcerers Apprentice (2010) BDRip-AVC от 0ptimus | D, P1, A торрент скачать бесплатно
  • Ученик чародея / The Sorcerers Apprentice (2010) BDRip-AVC от HELLYWOOD торрент скачать бесплатно
  • Дмитрий Быков - Остромов, или Ученик чародея (2010) (2012) MP3 скачать через торрент бесплатно
  • Ученик чародея / The Sorcerers Apprentice (2010) BDRip 720p от Leonardo and Scarabey торрент скачать бесплатно
  • Ученик чародея / The Sorcerers Apprentice (2010) BDRip 720p by msltel | D, A скачать торрент бесплатно


    • Комментарии (0):

      Информация

      Информация

        Посетители, находящиеся в группе Гости, не могут оставлять комментарии в данной новости.

        ↓ Меню



        ↓ Опрос

        А Вы добавили сайт в закладки?
        Да
        Не


        Top 10 за неделю (Фильмы)