.
Авторизация | Регистрация
Хочешь лучшие торренты? Добавь свой email!
Добавить
» » Целуй меня, идиот! / Kyss meg for faen i helvete (2013) HDRip | L2 скачать через торрент бесплатно




    Целуй меня, идиот! / Kyss meg for faen i helvete (2013) HDRip | L2 скачать через торрент бесплатно

    Опубликовал: Админ | Дата: 27-02-2015, 11:09 | Просмотров: 286


    Детально о кино
    Русское название: Целуй меня, идиот!
    Русское название в мировом прокате: Kyss meg for faen i helvete
    Категория жанра: драма, мелодрама, комедия
    Создали в: 2013
    Главный режиссер: Стайан Кристиансен / Stian Kristiansen
    Актеры: Eili Harboe, ?yvind Larsen Runestad, Кристоффер Йонер, Johanna Knudsen Rostad, Ruben Rosbach, Reno-Mar?e Muren, Kim Andr? Bj?rkesett, Tuva Kvale Halseid, Anne Regine Ellingsaeter, Рольф Кристиан Ларсен, Enja Henriksen, Edvard Nordb?

    Сюжет: Юная Тале играет в театральной труппе, и скоро на сцене будет ставиться пьеса известного норвежского писателя Юна Фоссе. Кресло режиссера соглашается занять профессиональный актер, увязший в жизненном кризисе. Но соглашается с определенными условиями — он берет на главную мужскую роль местного героя, великого футболиста и идиота. Вскоре подростки понимают, что амбиции режиссера сделают из их жизни ад.





    Снималось в: Норвегия
    Время просмотра: 01:33:43
    Перевод текста: Любительский (двухголосый)den904 и DeadSno
    Субтитры: нет

    Файл
    Тип видео: AVI
    Качество фильма: HDRip
    Информация о видео: XviD, 720x304 (2.35:1), 1630 kbps, 23,976 fps, 0,311 bpp
    Информация о звуке: AC3 / 5.1 / 48 kHz / 448 kbps / 16 bit



    Media Info


    Общее
    Формат : AVI
    Формат/Информация : Audio Video Interleave
    Размер файла : 1,37 Гбайт
    Продолжительность : 1 ч. 33 м.
    Общий поток : 2088 Кбит/сек
    Программа кодирования : VirtualDubMod 1.5.10.3 | http://www.virtualdub-fr.org || (build 2550/release)
    Библиотека кодирования : VirtualDubMod build 2550/release

    Видео
    Идентификатор : 0
    Формат : MPEG-4 Visual
    Профиль формата : Advanced Simple@L5
    Параметр BVOP формата : 1
    Параметр QPel формата : Нет
    Параметр GMC формата : Без точки перехода
    Параметр матрицы формата : Выборочная
    Идентификатор кодека : XVID
    Идентификатор кодека/Подсказка : XviD
    Продолжительность : 1 ч. 33 м.
    Битрейт : 1631 Кбит/сек
    Ширина : 720 пикселей
    Высота : 304 пикселя
    Соотношение сторон : 2,35:1
    Частота кадров : 23,976 кадра/сек
    Цветовое пространство : YUV
    Субдискретизация насыщенности : 4:2:0
    Битовая глубина : 8 бит
    Тип развёртки : Прогрессивная
    Метод сжатия : С потерями
    Бит/(Пиксели*Кадры) : 0.311
    Размер потока : 1,07 Гбайт (78%)
    Библиотека кодирования : XviD 1.2.1 (UTC 2008-12-04)

    Аудио
    Идентификатор : 1
    Формат : AC-3
    Формат/Информация : Audio Coding 3
    Расширение режима : CM (complete main)
    Параметр Endianness формата : Big
    Идентификатор кодека : 2000
    Продолжительность : 1 ч. 33 м.
    Вид битрейта : Постоянный
    Битрейт : 448 Кбит/сек
    Каналы : 6 каналов
    Расположение каналов : Front: L C R, Side: L R, LFE
    Частота : 48,0 КГц
    Битовая глубина : 16 бит
    Метод сжатия : С потерями
    Размер потока : 300 Мбайт (21%)
    Выравнивание : Разделение по промежуткам
    Продолжительность промежутка : 42 мс. (1,00 видеокадр)
    Время предзагрузки промежутка : 500 мс.




    Скриншоты для ознакомления




    Залил: rejik
    Размер скачиваемого торрента: 1.37 GB (1467715584 Bytes)

    Целуй меня, идиот! / Kyss meg for faen i helvete (2013) HDRip | L2 скачать через торрент бесплатно
    загрузка...
    Рейтинг →
     (голосов: 1, оценка 5/5, голосовать можно 1 раз )

    Другие торренты по теме:

  • VA - Целуй. Топ новинок попмузыки (2017) MP3


    • Комментарии (0):

      Информация

      Информация

        Посетители, находящиеся в группе Гости, не могут оставлять комментарии в данной новости.

        ↓ Меню



        ↓ Опрос

        А Вы добавили сайт в закладки?
        Да
        Не


        Top 10 за месяц (Фильмы)