.
Авторизация | Регистрация
» » Страсти Дон Жуана / Don Jon (2013) BDRip 1080p | D | Лицензия скачать через торрент бесплатно




    Страсти Дон Жуана / Don Jon (2013) BDRip 1080p | D | Лицензия скачать через торрент бесплатно

    Опубликовал: Админ | Дата: 27-02-2015, 11:09 | Просмотров: 279



    Детально о кино
    Русское название: Страсти Дон Жуана
    Русское название в мировом прокате: Don Jon
    Создали в: 2013
    Категория жанра: Комедия, мелодрама
    Снималось в: США, Voltage Pictures, HitRecord Films, Ram Bergman Productions
    Главный режиссер: Джозеф Гордон-Левитт
    Актеры: Джозеф Гордон-Левитт, Скарлетт Йоханссон, Джулианна Мур, Тони Данца, Гленн Хедли, Бри Ларсон, Роб Браун, Джереми Люк, Пол Бен-Виктор, Италиа Риччи

    Сюжет фильма: Комичная история современного ловеласа, который из каждого любовного приключения вынужден спасаться бегством. Он еще не знает, что недалек тот час, когда ему все-таки придется остепениться…



    Файл
    Качество фильма: BDRip (1080p)
    Информация о видео: MPEG-4 AVC, 11.3 Мбит/с, 1920x804
    Информация о звуке: Русский (DTS, 6 ch, 1510 Кбит/с), (AC3, 6 ch, 640 Кбит/с)
    Размер скачиваемого торрента: 8.1 ГБ
    Время просмотра: 01:26:13
    Перевод текста: Дублированный лицензия

    MI
    Общее
    Уникальный идентификатор : 196069094639919505337897758584196238460 (0x938188B7BC762BEC99E2378A14570C7C)
    Полное имя : D:Strasti.Don.Juana.2013.BDRip.1080.CMEGRoup.mkv
    Формат : Matroska
    Версия формата : Version 2
    Размер файла : 8,10 Гбайт
    Продолжительность : 1 ч. 26 м.
    Общий поток : 13,4 Мбит/сек
    Название фильма : CMEGRoup
    Дата кодирования : UTC 2013-12-04 05:24:05
    Программа кодирования : mkvmerge v6.3.0 (;You can;t stop me!;) built on Jun 28 2013 20:09:41
    Библиотека кодирования : libebml v1.3.0 libmatroska v1.4.0

    Видео
    Идентификатор : 1
    Формат : AVC
    Формат/Информация : Advanced Video Codec
    Профиль формата : High@L4.1
    Параметр CABAC формата : Да
    Параметр ReFrames формата : 4 кадра
    Идентификатор кодека : V_MPEG4/ISO/AVC
    Продолжительность : 1 ч. 26 м.
    Битрейт : 11,3 Мбит/сек
    Ширина : 1920 пикселей
    Высота : 804 пикселя
    Соотношение сторон : 2,40:1
    Режим частоты кадров : Постоянный
    Частота кадров : 25,000 кадров/сек
    Цветовое пространство : YUV
    Субдискретизация насыщенности : 4:2:0
    Битовая глубина : 8 бит
    Тип развёртки : Прогрессивная
    Бит/(Пиксели*Кадры) : 0.293
    Размер потока : 6,64 Гбайт (82%)
    Заголовок : CMEGRoup
    Библиотека кодирования : x264 core 138 r2358 9e941d1
    Настройки программы : cabac=1 / ref=4 / deblock=1:-3:-3 / analyse=0x3:0x113 / me=umh / subme=11 / psy=1 / psy_rd=1.00:0.00 / mixed_ref=1 / me_range=32 / chroma_me=1 / trellis=2 / 8x8dct=1 / cqm=0 / deadzone=21,11 / fast_pskip=1 / chroma_qp_offset=-2 / threads=12 / lookahead_threads=1 / sliced_threads=0 / nr=0 / decimate=1 / interlaced=0 / bluray_compat=0 / constrained_intra=0 / bframes=5 / b_pyramid=2 / b_adapt=1 / b_bias=0 / direct=2 / weightb=1 / open_gop=0 / weightp=2 / keyint=250 / keyint_min=25 / scenecut=40 / intra_refresh=0 / rc_lookahead=40 / rc=2pass / mbtree=1 / bitrate=11300 / ratetol=1.0 / qcomp=0.60 / qpmin=10 / qpmax=51 / qpstep=4 / cplxblur=20.0 / qblur=0.5 / vbv_maxrate=62500 / vbv_bufsize=78125 / nal_hrd=none / ip_ratio=1.40 / aq=1:1.00 / zones=121190,129338,q=40
    Язык : English
    Default : Да
    Forced : Нет

    Аудио #1
    Идентификатор : 2
    Формат : DTS
    Формат/Информация : Digital Theater Systems
    Режим : 16
    Параметр Endianness формата : Big
    Идентификатор кодека : A_DTS
    Продолжительность : 1 ч. 26 м.
    Вид битрейта : Постоянный
    Битрейт : 1509 Кбит/сек
    Каналы : 6 каналов
    Расположение каналов : Front: L C R, Side: L R, LFE
    Частота : 48,0 КГц
    Битовая глубина : 16 бит
    Метод сжатия : С потерями
    Размер потока : 931 Мбайт (11%)
    Язык : Russian
    Default : Да
    Forced : Нет

    Аудио #2
    Идентификатор : 3
    Формат : AC-3
    Формат/Информация : Audio Coding 3
    Расширение режима : CM (complete main)
    Параметр Endianness формата : Big
    Идентификатор кодека : A_AC3
    Продолжительность : 1 ч. 26 м.
    Вид битрейта : Постоянный
    Битрейт : 640 Кбит/сек
    Каналы : 6 каналов
    Расположение каналов : Front: L C R, Side: L R, LFE
    Частота : 48,0 КГц
    Битовая глубина : 16 бит
    Метод сжатия : С потерями
    Размер потока : 395 Мбайт (5%)
    Язык : Russian
    Default : Нет
    Forced : Нет

    Меню
    00:00:00.000 : en:00:00:00.000
    00:07:03.320 : en:00:07:03.320
    00:14:54.640 : en:00:14:54.640
    00:21:06.720 : en:00:21:06.720
    00:28:36.080 : en:00:28:36.080
    00:35:33.080 : en:00:35:33.080
    00:42:06.680 : en:00:42:06.680
    00:51:46.320 : en:00:51:46.320
    00:58:00.480 : en:00:58:00.480
    01:03:02.200 : en:01:03:02.200
    01:11:04.280 : en:01:11:04.280
    01:17:57.760 : en:01:17:57.760


    Скриншоты для ознакомления




    Релиз подготовил:
    Размер скачиваемого торрента: 8.10 GB (8696342224 Bytes)

    Страсти Дон Жуана / Don Jon (2013) BDRip 1080p | D | Лицензия скачать через торрент бесплатно
    загрузка...
    Рейтинг →
     (голосов: 1, оценка 5/5, голосовать можно 1 раз )

    Другие торренты по теме:

  • Страсти Дон Жуана / Don Jon (2013) DVDRip | Лицензия торрент скачать бесплатно
  • Страсти Дон Жуана / Don Jon (2013) DVDRip-AVC от New-Team | D | лицензия скачать через торрент бесплатно
  • Страсти Дон Жуана / Don Jon (2013) DVD5 R5 от New-Team | D | лицензия скачать через торрент бесплатно
  • Страсти Дон Жуана / Don Jon (2013) DVDRip от New-Team | D | лицензия скачать через торрент бесплатно
  • Страсти Дон Жуана / Don Jon (2013) DVDRip от Scarabey | D | Лицензия скачать через торрент бесплатно
  • Страсти Дон Жуана / Don Jon (2013) BDRip-AVC | Лицензия скачать через торрент бесплатно
  • Страсти Дон Жуана / Don Jon (2013) BDRip 720p | D | Лицензия скачать через торрент бесплатно
  • Страсти Дон Жуана / Don Jon (2013) HDRip-AVC от Aybek.B | D торрент скачать бесплатно


    • Комментарии (0):

      Информация

      Информация

        Посетители, находящиеся в группе Гости, не могут оставлять комментарии в данной новости.

        ↓ Меню



        ↓ Опрос

        А Вы добавили сайт в закладки?
        Да
        Не


        Top 10 за неделю (Фильмы)