.
Авторизация | Регистрация
Хочешь лучшие торренты? Добавь свой email!
Добавить
» » Заложники / Hostages (2013) WEB-DLRip скачать через торрент бесплатно




    Заложники / Hostages (2013) WEB-DLRip скачать через торрент бесплатно

    Опубликовал: Админ | Дата: 27-02-2015, 11:09 | Просмотров: 379

    Заложники / Hostages

    Создали в: 2013
    Снималось в: США
    Категория жанра: триллер, драма
    Время просмотра: 00:45:00

    Перевод текста: Любительский (многоголосый закадровый) (ViruseProject)
    Русские субтитры: нет
    Главный режиссёр: Джейсон Энслер, Джеффри Начманофф

    Актеры: Тони Коллетт, Дилан МакДермотт, Тейт Донован, Куинн Шепард, Матеус Уорд, Билли Браун, Сандрин Холт, Риз Койро, Джеймс Нафтон, Тайлер Эллиот Бурк

    Сюжет: Hostages — остросюжетный триллер, рассказывающий о докторе Эллен Сандерс, первоклассном хирурге, втянутой в политический заговор после того, как ее семью берет в заложники вышедший из-под контроля агент ФБР Дункан Карлайл. Карлайл приказывает ей убить президента, когда она будет проводить над ним операцию. Жизнь семьи Эллен находится под угрозой и Эллен предстоит сделать непосильный выбор, чтобы спасти своего мужа, дочку и сына. Ставки между Эллен и Карлайлом высоки как никогда, а грань между правильным и неправильным никогда не была столь размытой.


    Релиз:

    Над релизом трудились:
    Озвучка:
    *Алла Блаер (с 1 по 6 серии)
    *Марина Видякина (с 7 серии)
    *Татьяна Романовская

    *Алекс Викке
    *Борис Александров
    *Дмитрий Иванов

    Перевод текста:AkI3aIPuyC, Vela и Нотабеноид
    Монтаж:Татьяна Романовская
    Сведение звука, подготовка видео:viruse (Виталий Емельянов)


    смотреть ТРЕЙЛЕР СЕРИАЛА на РУССКОМ ЯЗЫКЕ на youtube

    смотреть СЕМПЛ озвучки на youtube
    смотреть СЕМПЛ №2 озвучки на youtube
    скачать СЕМПЛ с multi-up

    Качество фильма: WEB-DLRip
    Тип видео: AVI
    Информация о видео кодек: XviD
    Информация о звуке кодек: MP3
    Информация о видео: 720x400 (1.80:1), 23.976 fps, XviD build 50 ~1483 kbps avg, 0.22 bit/pixel
    Информация о звуке: 48 kHz, MPEG Layer 3, 2 ch, ~192.00 kbps avg
    MediaInfo

    E:ОЗВУЧКАСЕРИАЛЫHostages.S01.ViruseProjectHostages.S01.ViruseProjectHostages.S01E01.ViruseProject.avi
    General
    Complete name : E:ОЗВУЧКАСЕРИАЛЫHostages.S01.ViruseProjectHostages.S01.ViruseProjectHostages.S01E01.ViruseProject.avi
    Format : AVI
    Format/Info : Audio Video Interleave
    File size : 523 MiB
    Duration : 43mn 22s
    Overall bit rate : 1 685 Kbps
    Writing application : VirtualDubMod 1.5.10.2 (build 2540/release)
    Writing library : VirtualDubMod build 2540/release
    Video #0
    ID : 0
    Format : MPEG-4 Visual
    Format profile : Advanced Simple@L5
    Format settings, BVOP : 1
    Format settings, QPel : No
    Format settings, GMC : No warppoints
    Format settings, Matrix : Default (MPEG)
    Codec ID : XVID
    Codec ID/Hint : XviD
    Duration : 43mn 22s
    Bit rate : 1 484 Kbps
    Width : 720 pixels
    Height : 400 pixels
    Display aspect ratio : 16:9
    Frame rate : 23.976 fps
    Color space : YUV
    Chroma subsampling : 4:2:0
    Bit depth : 8 bits
    Scan type : Progressive
    Compression mode : Lossy
    Bits/(Pixel*Frame) : 0.215
    Stream size : 460 MiB (88%)
    Writing library : XviD 1.2.1 (UTC 2008-12-04)
    Audio #1
    ID : 1
    Format : MPEG Audio
    Format version : Version 1
    Format profile : Layer 3
    Mode : Joint stereo
    Mode extension : MS Stereo
    Codec ID : 55
    Codec ID/Hint : MP3
    Duration : 43mn 22s
    Bit rate mode : Constant
    Bit rate : 192 Kbps
    Channel(s) : 2 channels
    Sampling rate : 48.0 KHz
    Compression mode : Lossy
    Stream size : 59.6 MiB (11%)
    Alignment : Split accross interleaves
    Interleave, duration : 42 ms (1.00 video frame)
    Interleave, preload duration : 500 ms

    Скриншоты для ознакомления



    Внимание! Раздача ведётся путём добавления новых серий.

    Внимание! Раздача ведётся путём добавления новых серий; при каждом добавлении создётся новый торрент. Чтобы начать докачку новой серии, пользователям необходимо сделать следующее:

    Остановить скачивание.
    Удалить старый торрент у себя из клиента (старые серии удалять не надо).
    Скачать новый торрент и запустить его у себя в клиенте вместо старого, при этом указать клиенту путь в старую папку куда и должно происходить скачивание новых серий.
    size=11Ваш клиент при этом должен произвести хеширование (проверку) старой папки (если не производит сам - помогите ему сделать это), и будет докачивать только те серии которых у вас ещё нет. Старые серии при этом не удаляются, а продолжают раздаваться!
    Eсли вы уже удалили старые серии, то предотвратить повторную закачку старых серий можно, отжав галочку в соответсвующих местах при запуске нового торрента. По возможности, желательно не удалять старые серии как можно дольше чтобы релизёр не столько продолжал раздавать старые серии, а смог сконцентрироваться на новых./sizesize=22font=Monotype CorsivaКак закачать отдельный файл из торрента или докачать ранее пропущенные файлы торрента!/font/size

    Размер скачиваемого торрента: 4.62 GB (4957796352 Bytes)

    Заложники / Hostages (2013) WEB-DLRip скачать через торрент бесплатно
    загрузка...
    Рейтинг →
     (голосов: 1, оценка 4/5, голосовать можно 1 раз )

    Другие торренты по теме:

  • Заложники / Under Pressure (1997) DVDRip | A
  • Заложники / Kapringen (2012) BDRip 1080p
  • Заложники / Hostages (2013) WEB-DL 720p скачать через торрент бесплатно
  • Заложники / Kapringen (2012) BDRip-AVC от HELLYWOOD | P2
  • Угон / Заложники / Kapringen / A Hijacking (2012) BDRip 720p от Leonardo and Scarabey скачать через торрент бесплатно
  • Заложники / Kapringen (2012) BDRip-AVC от Rulya74
  • Заложники / Hostages (2013) WEB-DLRip | ViruseProject скачать через торрент бесплатно
  • Заложники / Hostages (2013) WEB-DLRip | ViruseProject | iPhone скачать через торрент бесплатно


    • Комментарии (0):

      Информация

      Информация

        Посетители, находящиеся в группе Гости, не могут оставлять комментарии в данной новости.

        ↓ Меню



        ↓ Опрос

        А Вы добавили сайт в закладки?
        Да
        Не


        Top 10 за месяц (Фильмы)