.
Авторизация | Регистрация
Хочешь лучшие торренты? Добавь свой email!
Добавить
» » Инспектор Льюис / Lewis (2009) HDTVRip 720p скачать через торрент бесплатно




    Инспектор Льюис / Lewis (2009) HDTVRip 720p скачать через торрент бесплатно

    Опубликовал: Админ | Дата: 27-02-2015, 11:09 | Просмотров: 267



    Детально о кино
    Русское название: Инспектор Льюис
    Русское название в мировом прокате: Lewis
    Создали в: 2009
    Категория жанра: драма, криминал, детектив
    Главный режиссер: Билл Андерсон, Дэн Рид, Николас Рентон
    Актеры: Кевин Уотли, Лоуренс Фокс, Клер Холман, Ребекка Фронт, Колин Декстер, Alton Letto, Грег Беннетт, Джейсон Дурр, Пол Андерсон, Pippa Bennett-Warner

    Сюжет фильма:
    Перед вами захватывающая детективная драма, в центре которой - жизнь и работа Роберта Льюиса, обаятельного полицейского, знакомого зрителям по популярному сериалу Инспектор Морс. Через пять лет после смерти своего друга и начальника, Морса, инспектор Льюис возвращается на привычную территорию - в университетский городок Оксфорда. Теперь ему предстоит не только расследовать тяжкие преступления, но и противостоять натиску нового босса - женщины с весьма непростым характером.

    Амбициозная студентка Оксфорда найдена убитой в своём гостиничном номере после приглашения знаменитого хакера, недавно вышедшего из тюрьмы, выступить в университете. Льюис и Хэтуэй принимаются за расследование этого дела, в котором есть всё - от рухнувших надежд и коварства близких до теней из прошлого Льюиса...

    Содержание

    01. Аллегория любви / Allegory of Love (2009)
    В Оксфорде убита работница бара, нелегально приехавшая из Боснии. А на следующий день убивают молодого талантливого писателя-фантаста Крэйна. Расследуя эти убийства, инспектор Льюис приходит к выводу, что девушку из бара убили по ошибке. На самом деле жертвой преступника должна была стать невеста писателя...

    02. Свойство милосердия / The Quality of Mercy (2009)
    На генеральной репетиции пьесы Венецианский купец в студенческом театре был убит исполнитель главной роли Ричард Скотт. А на следующий день на вечеринке после премьеры погибает журналистка Амандо Кастелло. Как же связаны между собой эти убийства?

    03. Точка исчезновения / The Point of Vanishing (2009)
    Убит Стив Мален, когда-то отсидевший за вождение в нетрезвом виде. Инспектор Льюис выяснил, что он тогда сбил единственную дочь известного публициста, ставшую инвалидом, и родители до сих пор не могут простить Малена...

    04. Субкультурный блюз / Counter Culture Blues (2009)
    Бывший продюсер гитариста Ричи Макгуайера приезжает к нему с предложением возродить их легендарную рок-группу. А вскоре последовала череда убийств людей, связанных с группой...


    Снималось в: Великобритания
    Время просмотра: 4 x ~ 01:33:00
    Перевод текста: Профессиональный многоголосый закадровый - студия Лексикон по заказу ТВЦ

    Файл
    Кодек для видео: x264
    Качество фильма: HDTVRip 720p
    Информация о видео: 1280x720 at 25 fps, x264@L4.1, 2pass, ~3200 kbps avg, 0.14 bit/pixel
    Информация о звуке:
    Аудио #1: Русский: 48 kHz, AC3, 2/0 (L,R) ch, ~192 kbps avg |Многоголосый закадровый, ТВЦ|
    Аудио #2: Английский: 48 kHz, AC3, 2/0 (L,R) ch, ~224 kbps avg
    Субтитры: Русские, Английские

    MI

    General
    Complete name : Lewis.S03E01.Allegory.of.Love.720p.HDTVRip.Rus.Eng.mkv
    Format : Matroska
    Format version : Version 2
    File size : 2.29 GiB
    Duration : 1h 32mn
    Overall bit rate : 3 539 Kbps
    Encoded date : UTC 2012-07-22 22:31:08
    Writing application : mkvmerge v5.6.0 (;Kenya Kane;) built on May 27 2012 16:44:04
    Writing library : libebml v1.2.3 libmatroska v1.3.0

    Video
    ID : 1
    Format : AVC
    Format/Info : Advanced Video Codec
    Format profile : High@L4.1
    Format settings, CABAC : Yes
    Format settings, ReFrames : 3 frames
    Codec ID : V_MPEG4/ISO/AVC
    Duration : 1h 32mn
    Bit rate : 3 120 Kbps
    Width : 1 280 pixels
    Height : 720 pixels
    Display aspect ratio : 16:9
    Frame rate : 25.000 fps
    Color space : YUV
    Chroma subsampling : 4:2:0
    Bit depth : 8 bits
    Scan type : Progressive
    Bits/(Pixel*Frame) : 0.135
    Stream size : 1.98 GiB (86%)
    Writing library : x264 core 67 r1127 8d82fec
    Encoding settings : cabac=1 / ref=3 / deblock=1:0:0 / analyse=0x3:0x113 / me=hex / subme=6 / psy_rd=1.0:0.0 / mixed_ref=0 / me_range=16 / chroma_me=1 / trellis=1 / 8x8dct=1 / cqm=0 / deadzone=21,11 / chroma_qp_offset=-2 / threads=12 / nr=0 / decimate=1 / mbaff=0 / bframes=3 / b_pyramid=1 / b_adapt=1 / b_bias=0 / direct=3 / wpredb=0 / keyint=250 / keyint_min=25 / scenecut=40 / rc=2pass / bitrate=3120 / ratetol=1.0 / qcomp=0.60 / qpmin=10 / qpmax=51 / qpstep=4 / cplxblur=20.0 / qblur=0.5 / ip_ratio=1.40 / pb_ratio=1.30 / aq=1:1.00
    Language : English
    Default : Yes
    Forced : No

    Audio #1
    ID : 2
    Format : AC-3
    Format/Info : Audio Coding 3
    Mode extension : CM (complete main)
    Codec ID : A_AC3
    Duration : 1h 32mn
    Bit rate mode : Constant
    Bit rate : 192 Kbps
    Channel(s) : 2 channels
    Channel positions : Front: L R
    Sampling rate : 48.0 KHz
    Bit depth : 16 bits
    Compression mode : Lossy
    Stream size : 127 MiB (5%)
    Title : ТВЦ
    Language : Russian
    Default : Yes
    Forced : No

    Audio #2
    ID : 3
    Format : AC-3
    Format/Info : Audio Coding 3
    Mode extension : CM (complete main)
    Codec ID : A_AC3
    Duration : 1h 32mn
    Bit rate mode : Constant
    Bit rate : 224 Kbps
    Channel(s) : 2 channels
    Channel positions : Front: L R
    Sampling rate : 48.0 KHz
    Bit depth : 16 bits
    Compression mode : Lossy
    Stream size : 148 MiB (6%)
    Language : English
    Default : No
    Forced : No

    Text #1
    ID : 4
    Format : UTF-8
    Codec ID : S_TEXT/UTF8
    Codec ID/Info : UTF-8 Plain Text
    Language : Russian
    Default : No
    Forced : No

    Text #2
    ID : 5
    Format : UTF-8
    Codec ID : S_TEXT/UTF8
    Codec ID/Info : UTF-8 Plain Text
    Language : English
    Default : No
    Forced : No

    Скриншоты для ознакомления

    Размер скачиваемого торрента: 9.16 GB (9837665123 Bytes)

    Инспектор Льюис / Lewis (2009) HDTVRip 720p скачать через торрент бесплатно
    загрузка...
    Рейтинг →
     (голосов: 1, оценка 5/5, голосовать можно 1 раз )

    Другие торренты по теме:

  • Инспектор Льюис / Lewis (2013) WEB-DL 1080p скачать через торрент бесплатно
  • Инспектор Льюис / Lewis (2013) WEB-DL 720p скачать через торрент бесплатно
  • Инспектор Льюис / Lewis (2011-2012) WEB-DL 720p скачать через торрент бесплатно
  • Инспектор Льюис / Lewis (2011-2012) WEB-DL 1080p скачать через торрент бесплатно
  • Инспектор Льюис / Lewis (2011) WEB-DL 1080p скачать через торрент бесплатно
  • Инспектор Льюис / Lewis (2011) WEB-DL 720p скачать через торрент бесплатно
  • Инспектор Льюис / Lewis (2010) HDTVRip 720p скачать через торрент бесплатно
  • Инспектор Льюис / Lewis (2008) HDTVRip 720p скачать через торрент бесплатно


    • Комментарии (0):

      Информация

      Информация

        Посетители, находящиеся в группе Гости, не могут оставлять комментарии в данной новости.

        ↓ Меню



        ↓ Опрос

        А Вы добавили сайт в закладки?
        Да
        Не


        Top 10 за месяц (Фильмы)