.
Авторизация | Регистрация
Хочешь лучшие торренты? Добавь свой email!
Добавить
» » Папочка / Baby Daddy (2012) HDTVRip | DreamRecords скачать через торрент бесплатно




    Папочка / Baby Daddy (2012) HDTVRip | DreamRecords скачать через торрент бесплатно

    Опубликовал: Админ | Дата: 27-02-2015, 11:09 | Просмотров: 430



    Детально о кино
    Русское название: Папочка
    Русское название в мировом прокате: Baby Daddy
    Создали в: 2012
    Категория жанра: комедия, ситком
    Главный режиссер: Майкл Лембек, Арлин Санфорд, Робби Кантримэн
    Актеры: Жан-Люк Билодо, Таж Моури, Дерек Телер, Мелисса Питерман, Челси Кейн, Али Луиз Хартман

    Сюжет фильма:
    Сериал рассказывает о Бене, парне 20 с небольшим, которому бывшая подружка оставляет ребенка под дверью. Бен решает растить дочку самостоятельно. Помогает ему с этим мать Бонни, брат Дэнни, лучший друг Такер и близкая подруга Райли, которая втайне влюблена в Бена.


    Официальный сайт

    Снималось в: США
    Киностудия: ABC Family
    Время просмотра: ~ 00:21:00 серия
    Перевод текста: Любительский (многоголосый закадровый) - (DreamRecords)

    Файл
    Кодек для видео: XviD / MP3
    Качество фильма: HDTVRip
    Информация о видео: 720x400, 23.976 fps, ~1 295 kbps avg, 0.188 bit/pixel
    Информация о звуке: MP3, 48 kHz, 2 ch, 192 kbps

    Скриншоты для ознакомления
    MediaInfo
    Общее
    Полное имя : D:DownloadsПапочка (Сезон 2) Baby Daddy (2013) HDTVRip - DreamRecordsBaby.Daddy.S02E01.HDTVRip.XviD-DreamRecords.avi
    Формат : AVI
    Формат/Информация : Audio Video Interleave
    Размер файла : 228 Мбайт
    Продолжительность : 21 м.
    Общий поток : 1496 Кбит/сек
    Программа кодирования : VirtualDubModRus 1.5.10.2 (build 2542/release)
    Библиотека кодирования : VirtualDubMod build 2542/release

    Видео
    Идентификатор : 0
    Формат : MPEG-4 Visual
    Профиль формата : Advanced Simple@L5
    Параметр BVOP формата : 1
    Параметр QPel формата : Нет
    Параметр GMC формата : Без точки перехода
    Параметр матрицы формата : Default (MPEG)
    Идентификатор кодека : XVID
    Идентификатор кодека/Подсказка : XviD
    Продолжительность : 21 м.
    Битрейт : 1295 Кбит/сек
    Ширина : 720 пикселей
    Высота : 400 пикселей
    Соотношение сторон : 16:9
    Частота кадров : 23,976 кадра/сек
    Цветовое пространство : YUV
    Субдискретизация насыщенности : 4:2:0
    Битовая глубина : 8 бит
    Тип развёртки : Прогрессивная
    Метод сжатия : С потерями
    Бит/(Пиксели*Кадры) : 0.188
    Размер потока : 197 Мбайт (87%)
    Библиотека кодирования : XviD 64

    Аудио
    Идентификатор : 1
    Формат : MPEG Audio
    Версия формата : Version 1
    Профиль формата : Layer 3
    Идентификатор кодека : 55
    Идентификатор кодека/Подсказка : MP3
    Продолжительность : 21 м.
    Вид битрейта : Постоянный
    Битрейт : 192 Кбит/сек
    Каналы : 2 канала
    Частота : 48,0 КГц
    Метод сжатия : С потерями
    Размер потока : 29,2 Мбайт (13%)
    Выравнивание : Соединение по промежуткам
    Продолжительность промежутка : 42 мс. (1,00 видеокадр)
    Время предзагрузки промежутка : 504 мс.

    Размер скачиваемого торрента: 1.34 GB (1433899008 Bytes)

    Папочка / Baby Daddy (2012) HDTVRip | DreamRecords скачать через торрент бесплатно
    загрузка...
    Рейтинг →
     (голосов: 1, оценка 3/5, голосовать можно 1 раз )

    Другие торренты по теме:

  • Папочка / Baby Daddy (2017) HDTVRip 720p | Sunshine Studio
  • Папочка / Baby Daddy (2013) HDTVRip 720p | P
  • Папочка вступил в Сопротивление / Papy fait de la rsistance (1983) DVDRip от FilmRus | L1 скачать через торрент бесплатно
  • Папочка / Baby Daddy (2012) WEB-DLRip | Fox Life скачать через торрент бесплатно
  • Леди коп и папочка преступник / Daai sau cha ji neui / Lady Cop And Papa Crook (2008) BDRip 720p от MediaClub
  • Лети, папочка, лети / Peullai, daedi (2006) DVDRip L1
  • Поймай меня, папочка / Catch Me Daddy (2014) BDRip | L1
  • Папочка / Baby Daddy (2017) HDTVRip 720p | Sunshine Studio


    • Комментарии (0):

      Информация

      Информация

        Посетители, находящиеся в группе Гости, не могут оставлять комментарии в данной новости.

        ↓ Меню



        ↓ Опрос

        А Вы добавили сайт в закладки?
        Да
        Не


        Top 10 за месяц (Фильмы)