.
Авторизация | Регистрация
Хочешь лучшие торренты? Добавь свой email!
Добавить
» » К-9: Собачья работа / K-9 (1989) DVDRip-AVC от ..::ArchangeL::.. торрент скачать бесплатно




    К-9: Собачья работа / K-9 (1989) DVDRip-AVC от ..::ArchangeL::.. торрент скачать бесплатно

    Опубликовал: Админ | Дата: 27-02-2015, 11:09 | Просмотров: 355



    Детально о кино
    Русское название: К-9: Собачья работа
    Русское название в мировом прокате: K-9
    Создали в: 1989
    Категория жанра: Комедия, боевик, криминал
    Главный режиссер: Род Дэниэл
    Актеры: Джеймс Белуши, Мэл Харрис, Кевин Тай, Джеймс Хэнди, Эд О’Нил, Джерри Ли, Дэниэл Дэвис, Коттер Смит, Джон Снайдер, Прюитт Тэйлор Винс, Шерман Ховард, Джефф Эллин, Дэвид Хэскелл, Алан Блюменфилд, Уильям Сэдлер, Марджори Брэнсфилд, Марк Муринг, Джерри Ливайн, Рик Чичетти, Дэн Кастелланета, Вендел Мелдрам, Джон Кастелланос, Коллин Моррис, Дж.В. Смит, Дин Хилл, Гари Комбс, Люси Батлер, Вик Кучия, Ральф Елиас

    Сюжет фильма:
    Два друга-напарника. Два самых крутых полицейских в городе... Угадайте, кто из них сообразительней? Классическая комедия Рода Дэниела с несравненным Джеймсом Белуши в главной роли. Никто не может ужиться со специальным агентом отдела по борьбе с наркотиками Томом Дули (Белуши). От этого крутого служителя законы напарники бегут во все стороны. Поэтому начальство решило определить в партнеры Тому хорошо подготовленного и опытного полицейского, у которого свой особый нюх на преступников, - заслуженного пса по имени Джерри Ли. И как ни странно, Дули и отважный Джерри Ли отлично сработались. Вместе двум копам предстоит разобраться со всеми злодеями, познакомиться с отличными девочками, стать гордостью полицейского управления и познать, что такое настоящая, мужская дружба.



    Снималось в: США
    Время просмотра: 01:37:09
    Перевод текста: Профессиональный двухголосый закадровый (Лицензия)

    Файл
    Рип с DVD9
    Кодек для видео: h264
    Качество фильма: DVDRip-AVC
    Информация о видео: Width : 720 pixels, Height : 392 pixels, Bit rate : 1 943 Kbps, 23.976 fps
    Информация о звуке: Русский AC-3, 192 Kbps, 2 channels

    MediaInfo

    Video
    ID : 1
    Format : AVC
    Format/Info : Advanced Video Codec
    Format profile : High@L4.1
    Format settings, CABAC : Yes
    Format settings, ReFrames : 5 frames
    Codec ID : V_MPEG4/ISO/AVC
    Duration : 1h 37mn
    Bit rate : 1 943 Kbps
    Width : 720 pixels
    Height : 392 pixels
    Display aspect ratio : 1.85:1
    Frame rate mode : Constant
    Frame rate : 23.976 fps
    Color space : YUV
    Chroma subsampling : 4:2:0
    Bit depth : 8 bits
    Scan type : Progressive
    Bits/(Pixel*Frame) : 0.287
    Stream size : 1.29 GiB (89%)

    Audio
    ID : 2
    Format : AC-3
    Format/Info : Audio Coding 3
    Mode extension : CM (complete main)
    Format settings, Endianness : Big
    Codec ID : A_AC3
    Duration : 1h 37mn
    Bit rate mode : Constant
    Bit rate : 192 Kbps
    Channel(s) : 2 channels
    Channel positions : Front: L R
    Sampling rate : 48.0 KHz
    Bit depth : 16 bits
    Compression mode : Lossy
    Stream size : 133 MiB (9%)
    Default : Yes
    Forced : No

    Скриншоты для ознакомления


    Релиз подготовил: ..::ArchangeL::..
    Залил: ..::ArchangeL::..
    Размер скачиваемого торрента: 1.45 GB (1556972007 Bytes)

    К-9: Собачья работа / K-9 (1989) DVDRip-AVC от ..::ArchangeL::.. торрент скачать бесплатно
    загрузка...
    Рейтинг →
     (голосов: 1, оценка 5/5, голосовать можно 1 раз )

    Другие торренты по теме:

  • К-9: Собачья работа / К-9 (1989) WEBRip 720p от k.e.n NNMClub | P, P2, A
  • К-9. Собачья работа / K-9 (1989) HDTVRip | Р
  • К-9: Собачья работа / K-9 (1989) HDTVRip-AVC от 0ptimus | P, P2, A
  • К-9: Собачья работа / K-9 (1989) BDRip 1080p | P, P2, A
  • К-9: Собачья работа / K-9 (1989) HDRip от MegaPeer | P, P2, A
  • К-9: Собачья работа / K-9 (1989) BDRemux 1080p | P, P2, A
  • К-9: Собачья работа / K-9 (1989) BDRip от HQ-ViDEO
  • К-9: Собачья работа / K-9 (1989) BDRip от HQCLUB


    • Комментарии (0):

      Информация

      Информация

        Посетители, находящиеся в группе Гости, не могут оставлять комментарии в данной новости.

        ↓ Меню



        ↓ Опрос

        А Вы добавили сайт в закладки?
        Да
        Не


        Top 10 за месяц (Фильмы)