.
Авторизация | Регистрация
» » Райский проект / The Lazarus Project (2008) BDRip 720p | P торрент скачать бесплатно




    Райский проект / The Lazarus Project (2008) BDRip 720p | P торрент скачать бесплатно

    Опубликовал: Админ | Дата: 27-02-2015, 11:09 | Просмотров: 256



    Снималось в: США
    Категория жанра: триллер, драма
    Создали в: 2008
    Время просмотра: 01:39:46

    Перевод текста: Профессиональный (многоголосый закадровый) | Лицензия
    Субтитры: Английские
    Главный режиссер: Джон Гленн / John Glenn

    Актеры: Пол Уокер, Пайпер Перабо, Бруклин Пру, Боб Гантон, Ламбер Вильсон, Линда Карделлини, Тони Карран, Малкольм Гудвин, Росс МакМиллан, Аарон Хьюз

    Сюжет: Триллер о человеке, который потерял всё то, что любил, и, чтобы вернуть назад свою семью и вернуться к нормальной жизни, ему придётся встретиться лицом к лицу с мистическими явлениями, пройти бесчисленное количество испытаний собственной веры, тронуться рассудком и изучить самые тёмные уголки своей души.



    Качество фильма: BDRip (720p)
    Информация о видео: MPEG-4 AVC, 4764 Кбит/с, 1280x546, 23.976 кадр/с
    Информация о звуке: Русский (AC3, 6 ch, 448 Кбит/с), английский (DTS, 6 ch, 1536 Кбит/с)

    Скрытый текст
    Формат : Matroska
    Версия формата : Version 2
    Размер файла : 4,69 Гбайт
    Продолжительность : 1 ч. 39 м.
    Общий поток : 6722 Кбит/сек
    Название фильма : Unforgiven (1992)
    Дата кодирования : UTC 2009-09-15 19:33:35
    Программа кодирования : mkvmerge v2.9.5 (;Tu es le seul;) built on Jun 7 2009 11:07:07
    Библиотека кодирования : libebml v0.7.7 libmatroska v0.8.1

    Видео
    Идентификатор : 1
    Формат : AVC
    Формат/Информация : Advanced Video Codec
    Профиль формата : High@L4.1
    Параметр CABAC формата : Да
    Параметр ReFrames формата : 5 кадров
    Идентификатор кодека : V_MPEG4/ISO/AVC
    Продолжительность : 1 ч. 39 м.
    Битрейт : 4764 Кбит/сек
    Ширина : 1280 пикселей
    Высота : 546 пикселей
    Соотношение сторон : 2,35:1
    Режим частоты кадров : Постоянный
    Частота кадров : 23,976 кадра/сек
    Цветовое пространство : YUV
    Субдискретизация насыщенности : 4:2:0
    Битовая глубина : 8 бит
    Тип развёртки : Прогрессивная
    Бит/(Пиксели*Кадры) : 0.284
    Размер потока : 3,23 Гбайт (69%)
    Заголовок : The Lazarus Project
    Библиотека кодирования : x264 core 67 r1127M 8d82fec
    Настройки программы : cabac=1 / ref=5 / deblock=1:-3:-3 / analyse=0x3:0x113 / me=umh / subme=9 / psy_rd=1.0:0.0 / mixed_ref=1 / me_range=32 / chroma_me=1 / trellis=2 / 8x8dct=1 / cqm=0 / deadzone=21,11 / chroma_qp_offset=-2 / threads=6 / nr=0 / decimate=1 / mbaff=0 / bframes=3 / b_pyramid=1 / b_adapt=2 / b_bias=0 / direct=3 / wpredb=1 / keyint=250 / keyint_min=25 / scenecut=40 / rc=2pass / bitrate=4764 / ratetol=1.0 / qcomp=0.60 / qpmin=10 / qpmax=51 / qpstep=4 / cplxblur=20.0 / qblur=0.5 / ip_ratio=1.40 / pb_ratio=1.30 / aq=1:0.80
    Язык : English
    Default : Да
    Forced : Нет

    Аудио #1
    Идентификатор : 2
    Формат : AC-3
    Формат/Информация : Audio Coding 3
    Расширение режима : CM (complete main)
    Параметр Endianness формата : Big
    Идентификатор кодека : A_AC3
    Продолжительность : 1 ч. 39 м.
    Вид битрейта : Постоянный
    Битрейт : 448 Кбит/сек
    Каналы : 6 каналов
    Расположение каналов : Front: L C R, Side: L R, LFE
    Частота : 48,0 КГц
    Битовая глубина : 16 бит
    Метод сжатия : С потерями
    Размер потока : 320 Мбайт (7%)
    Заголовок : Русский, AC3, 6 ch, 48 kHz, 448.00 kbps
    Язык : Russian
    Default : Да
    Forced : Нет

    Аудио #2
    Идентификатор : 3
    Формат : DTS
    Формат/Информация : Digital Theater Systems
    Идентификатор кодека : A_DTS
    Продолжительность : 1 ч. 39 м.
    Вид битрейта : Постоянный
    Битрейт : 1510 Кбит/сек
    Каналы : 6 каналов
    Расположение каналов : Front: L C R, Side: L R, LFE
    Частота : 48,0 КГц
    Битовая глубина : 16 бит
    Метод сжатия : С потерями
    Размер потока : 1,05 Гбайт (22%)
    Заголовок : Английский, DTS, 6 ch, 48 kHz, 1536 кб/с
    Язык : English
    Default : Нет
    Forced : Нет

    Текст
    Идентификатор : 4
    Формат : UTF-8
    Идентификатор кодека : S_TEXT/UTF8
    Идентификатор кодека/Информация : UTF-8 Plain Text
    Заголовок : Английский
    Язык : English
    Default : Да
    Forced : Нет
    Скриншоты для ознакомления

    Размер скачиваемого торрента: 4.69 GB (5030628748 Bytes)

    Райский проект / The Lazarus Project (2008) BDRip 720p | P торрент скачать бесплатно
    загрузка...
    Рейтинг →
     (голосов: 1, оценка 4/5, голосовать можно 1 раз )

    Другие торренты по теме:

  • Успенский Михаил - Райская машина (2011) MP3 торрент скачать бесплатно
  • Райское озеро / Eden Lake (2008) HDRip-AVC торрент скачать бесплатно
  • Райская вилла / Paradise villa (2001) DVDRip | L1 торрент скачать бесплатно
  • Райский Ад - Противостояние (1990) MP3 торрент скачать бесплатно
  • Сборник - Райская Тусовка Радио Рекорд 50 / 50 (2013) MP3 торрент скачать бесплатно
  • Райский поцелуй / Paradise Kiss (2011) DVDRip-AVC торрент скачать бесплатно
  • The Sims 3: Райские острова (2013) PC торрент скачать бесплатно
  • Тропико: Райский остров / Tropico: Paradise Island (2002) PC от MassTorr скачать через торрент бесплатно


    • Комментарии (0):

      Информация

      Информация

        Посетители, находящиеся в группе Гости, не могут оставлять комментарии в данной новости.

        ↓ Меню



        ↓ Опрос

        А Вы добавили сайт в закладки?
        Да
        Не


        Top 10 за неделю (Фильмы)