.
Авторизация | Регистрация
» » Ченнайский экспресс / Chennai Express (2013) BDRip 1080p | L торрент скачать бесплатно




    Ченнайский экспресс / Chennai Express (2013) BDRip 1080p | L торрент скачать бесплатно

    Опубликовал: Админ | Дата: 27-02-2015, 11:09 | Просмотров: 340

    Ченнайский экспресс / Chennai Express (2013) BDRip 1080p | L
    _________________________________________________________


    Детально о кино
    Русское название: Ченнайский экспресс
    Русское название в мировом прокате: Chennai Express
    Создали в: 2013
    Категория жанра: боевик, мелодрама, комедия
    Главный режиссер: Рохит Шетти (Rohit Shetty)
    Актеры: Шах Рукх Кхан, Дипика Падукон, Приямани, Сатьярадж, Манорама, Никитин Дхир и др.
    Сюжет фильма:
    Сорокалетний кондитер из Мумбаи, Рахул, садится на Ченнайский экспресс, чтобы отвезти прах деда в Рамешварам и развеять его там.
    Но судьбе было угодно, чтобы он помог опаздывающей на поезд девушке из южной деревни, а так же кое-кому еще.
    Все это не только разрушает планы Рахула, но круто меняет и его жизнь, и его самого.




    Снималось в: Индия
    Киностудия: Red Chillies Entertainment, UTV Motion Pictures
    Время просмотра: 02:21:19
    Перевод текста: Любительский (многоголосый закадровый)
    Файл
    Качество фильма: MKV, H.264, BDRip 1080p
    Сэмпл: Скачать
    Информация о видео: V_MPEG4/AVC, 1920х816 (2.35:1), ~ 6499 Kbps, 24,000 кадров/сек
    Информация о звуке: Аудио 1: АС3, 6 ch, 448 kbps, 48 kHz Rus Tamili (полная озвучка)
    Аудио 2: АС3, 6 ch, 448 kbps, 48 kHz Rus без озвучки Tamili
    Аудио 3: DTS, 6 ch, 1509 kbps, 48 kHz Hindi Tamili, оригинал
    Субтитры: русские, анлийские (отключаемые, UTF-8)
    Предыдущая версия релиза: Ченнайский экспресс / Chennai Express (2013) BDRip 720 | L
    Скриншоты для ознакомления
    MediaInfo
    General
    Unique ID : 183061377776307888015485682843721574422
    (0x89B856C2F01F90E6A6D3363DBA62A816)
    Complete name : Chennai.Express.2013.BDRip1080p.mkv
    Format : Matroska
    Format version : Version 2
    File size : 8.79 GiB
    Duration : 2h 21mn
    Overall bit rate : 8 904 Kbps
    Movie name : Chennai Express 2013 BDRip720 www.rutor.org
    Encoded date : UTC 2013-12-05 17:37:57
    Writing application : mkvmerge v5.5.0 (;Healer;) built on Apr 9 2012 13:24:38
    Writing library : libebml v1.2.3 libmatroska v1.3.0

    Video
    ID : 1
    Format : AVC
    Format/Info : Advanced Video Codec
    Format profile : High@L4.1
    Format settings, CABAC : Yes
    Format settings, ReFrames : 4 frames
    Muxing mode : Header stripping
    Codec ID : V_MPEG4/ISO/AVC
    Duration : 2h 21mn
    Bit rate : 6 499 Kbps
    Width : 1 920 pixels
    Height : 816 pixels
    Display aspect ratio : 2.35:1
    Frame rate mode : Constant
    Frame rate : 24.000 fps
    Color space : YUV
    Chroma subsampling : 4:2:0
    Bit depth : 8 bits
    Scan type : Progressive
    Bits/(Pixel*Frame) : 0.173
    Stream size : 6.24 GiB (71%)
    Title : Chennai Express 2013 www.rutor.org
    Writing library : x264 core 133 r2334 a3ac64b
    Encoding settings : cabac=1 / ref=5 / deblock=1:0:0 / analyse=0x3:0x113 / me=umh / subme=8 / psy=1 / psy_rd=1.00:0.15 / mixed_ref=1 / me_range=16 / chroma_me=1 / trellis=1 / 8x8dct=1 / cqm=0 / deadzone=21,11 / fast_pskip=1 / chroma_qp_offset=-3 / threads=18 / lookahead_threads=3 / sliced_threads=0 / nr=0 / decimate=1 / interlaced=0 / bluray_compat=0 / constrained_intra=0 / bframes=3 / b_pyramid=1 / b_adapt=2 / b_bias=0 / direct=3 / weightb=1 / open_gop=0 / weightp=2 / keyint=240 / keyint_min=24 / scenecut=40 / intra_refresh=0 / rc_lookahead=50 / rc=2pass / mbtree=1 / bitrate=6499 / ratetol=1.0 / qcomp=0.60 / qpmin=0 / qpmax=69 / qpstep=4 / cplxblur=20.0 / qblur=0.5 / vbv_maxrate=62500 / vbv_bufsize=78125 / nal_hrd=none / ip_ratio=1.40 / aq=1:1.00
    Language : English
    Default : Yes
    Forced : No

    Audio #1
    ID : 2
    Format : AC-3
    Format/Info : Audio Coding 3
    Mode extension : CM (complete main)
    Format settings, Endianness : Big
    Muxing mode : Header stripping
    Codec ID : A_AC3
    Duration : 2h 21mn
    Bit rate mode : Constant
    Bit rate : 448 Kbps
    Channel(s) : 6 channels
    Channel positions : Front: L C R, Side: L R, LFE
    Sampling rate : 48.0 KHz
    Bit depth : 16 bits
    Compression mode : Lossy
    Stream size : 453 MiB (5%)
    Title : AC3_Russian
    Language : Russian
    Default : Yes
    Forced : No

    Audio #2
    ID : 3
    Format : AC-3
    Format/Info : Audio Coding 3
    Mode extension : CM (complete main)
    Format settings, Endianness : Big
    Muxing mode : Header stripping
    Codec ID : A_AC3
    Duration : 2h 21mn
    Bit rate mode : Constant
    Bit rate : 448 Kbps
    Channel(s) : 6 channels
    Channel positions : Front: L C R, Side: L R, LFE
    Sampling rate : 48.0 KHz
    Bit depth : 16 bits
    Compression mode : Lossy
    Stream size : 453 MiB (5%)
    Title : AC3_Russian2
    Language : Russian
    Default : No
    Forced : No

    Audio #3
    ID : 4
    Format : DTS
    Format/Info : Digital Theater Systems
    Mode : 16
    Format settings, Endianness : Big
    Muxing mode : Header stripping
    Codec ID : A_DTS
    Duration : 2h 21mn
    Bit rate mode : Constant
    Bit rate : 1 509 Kbps
    Channel(s) : 6 channels
    Channel positions : Front: L C R, Side: L R, LFE
    Sampling rate : 48.0 KHz
    Bit depth : 24 bits
    Compression mode : Lossy
    Stream size : 1.49 GiB (17%)
    Title : DTS
    Language : Hindi
    Default : No
    Forced : No

    Text #1
    ID : 5
    Format : UTF-8
    Codec ID : S_TEXT/UTF8
    Codec ID/Info : UTF-8 Plain Text
    Title : Russian
    Language : Russian
    Default : No
    Forced : No

    Text #2
    ID : 6
    Format : UTF-8
    Codec ID : S_TEXT/UTF8
    Codec ID/Info : UTF-8 Plain Text
    Title : English
    Language : English
    Default : No
    Forced : No

    Menu
    00:00:00.000 : en:00:00:00.000
    00:06:59.042 : en:00:06:59.042
    00:11:09.917 : en:00:11:09.917
    00:23:01.750 : en:00:23:01.750
    00:24:16.417 : en:00:24:16.417
    00:31:49.667 : en:00:31:49.667
    00:43:10.000 : en:00:43:10.000
    00:49:45.625 : en:00:49:45.625
    00:53:44.167 : en:00:53:44.167
    01:02:20.792 : en:01:02:20.792
    01:11:55.625 : en:01:11:55.625
    01:19:21.875 : en:01:19:21.875
    01:28:12.000 : en:01:28:12.000
    01:33:46.167 : en:01:33:46.167
    01:37:42.542 : en:01:37:42.542
    01:49:30.958 : en:01:49:30.958
    01:53:21.292 : en:01:53:21.292
    01:56:54.583 : en:01:56:54.583
    01:59:35.625 : en:01:59:35.625
    02:04:51.208 : en:02:04:51.208
    02:12:27.042 : en:02:12:27.042
    02:17:44.000 : en:02:17:44.000

    Размер скачиваемого торрента: 8.79 GB (9436991646 Bytes)

    Ченнайский экспресс / Chennai Express (2013) BDRip 1080p | L торрент скачать бесплатно
    загрузка...
    Рейтинг →
     (голосов: 1, оценка 3/5, голосовать можно 1 раз )

    Другие торренты по теме:



      Комментарии (0):

      Информация

      Информация

        Посетители, находящиеся в группе Гости, не могут оставлять комментарии в данной новости.

        ↓ Меню



        ↓ Опрос

        А Вы добавили сайт в закладки?
        Да
        Не


        Top 10 за неделю (Фильмы)