.
Авторизация | Регистрация
Хочешь лучшие торренты? Добавь свой email!
Добавить
» » Матрица: Революция / The Matrix Revolutions (2003) BDRip 720p | D торрент скачать бесплатно




    Матрица: Революция / The Matrix Revolutions (2003) BDRip 720p | D торрент скачать бесплатно

    Опубликовал: Админ | Дата: 27-02-2015, 11:09 | Просмотров: 436



    Детально о кино
    Русское название: Матрица: Революция
    Русское название в мировом прокате: The Matrix Revolutions
    Создали в: 2003
    Категория жанра: фантастика, боевик, приключения
    Главный режиссер: Энди Вачовски, Лана Вачовски
    Актеры: Киану Ривз, Хьюго Уивинг, Кэрри-Энн Мосс, Лоренс Фишбёрн, Хэролд Перрино, Джина Торрес, Джада Пинкетт Смит, Моника Беллуччи, Гарри Дж. Ленникс, Мэри Элис

    Сюжет фильма:
    Пока армия Машин пытается уничтожить Зион, его жители из последних сил держат оборону. Но удастся ли им предотвратить полное вторжение в город кишащей орды беспощадных машин до того, как Нео соберет все свои силы и положит конец войне?



    Снималось в: Австралия, США
    Киностудия: Warner Bros., Village Roadshow Pictures, NPV Entertainment, Silver Pictures
    Время просмотра: 02:09:16
    Перевод текста: Профессиональный (дублированный)

    Файл
    Кодек для видео: x264
    Качество фильма: BDRip 720p
    Информация о видео: 1280x532 (2.40:1), 3775 kbps, 23.976 fps
    Информация о звуке:
    Russian; AC-3, 448 kbps, 3/2 (L,C,R,l,r) LFE ch, 48.0 kHz
    English; AC-3, 448 kbps, 3/2 (L,C,R,l,r) LFE ch, 48.0 kHz
    Субтитры: русские, английские

    Сэмпл, скачать

    Автор рипа: Xenosag

    MediaInfo
    General
    Unique ID : 237704646976715468470074454467009944341 (0xB2D43FEFD424B2FDA195DDD473299B15)
    Complete name : The Matrix Revolutions.mkv
    Format : Matroska
    Format version : Version 2
    File size : 4.30 GiB
    Duration : 2h 9mn
    Overall bit rate : 4 766 Kbps
    Movie name : The Matrix Revolutions
    Encoded date : UTC 2010-02-18 00:03:08
    Writing application : mkvmerge v3.0.0 (;Hang up your Hang-Ups;) built on Dec 12 2009 15:20:35
    Writing library : libebml v0.7.9 libmatroska v0.8.1
    Attachment : Yes / Yes

    Video
    ID : 1
    Format : AVC
    Format/Info : Advanced Video Codec
    Format profile : High@L4.1
    Format settings, CABAC : Yes
    Format settings, ReFrames : 12 frames
    Codec ID : V_MPEG4/ISO/AVC
    Duration : 2h 9mn
    Bit rate : 3 775 Kbps
    Width : 1 280 pixels
    Height : 532 pixels
    Display aspect ratio : 2.40:1
    Frame rate mode : Constant
    Frame rate : 23.976 fps
    Color space : YUV
    Chroma subsampling : 4:2:0
    Bit depth : 8 bits
    Scan type : Progressive
    Bits/(Pixel*Frame) : 0.231
    Stream size : 3.41 GiB (79%)
    Title : The Matrix Revolutions
    Writing library : x264 core 84 r1400kGIT 20fa784
    Encoding settings : cabac=1 / ref=12 / deblock=1:-2:-2 / analyse=0x3:0x133 / me=umh / subme=9 / psy=1 / psy_rd=1.2:0.0 / mixed_ref=1 / me_range=64 / chroma_me=1 / trellis=2 / 8x8dct=1 / cqm=0 / deadzone=21,11 / fast_pskip=0 / chroma_qp_offset=-2 / threads=9 / sliced_threads=0 / nr=0 / decimate=1 / mbaff=0 / constrained_intra=0 / bframes=16 / b_pyramid=2 / b_adapt=2 / b_bias=0 / direct=1 / wpredb=1 / wpredp=2 / keyint=250 / keyint_min=25 / scenecut=40 / intra_refresh=0 / rc_lookahead=60 / rc=crf / mbtree=0 / crf=19.3 / qcomp=0.60 / qpmin=10 / qpmax=51 / qpstep=4 / vbv_maxrate=50000 / vbv_bufsize=50000 / ip_ratio=1.40 / pb_ratio=1.30 / aq=1:1.10 / pulldown=0 / nal_hrd=0
    Language : English
    Default : No
    Forced : No

    Audio #1
    ID : 2
    Format : AC-3
    Format/Info : Audio Coding 3
    Mode extension : CM (complete main)
    Format settings, Endianness : Big
    Codec ID : A_AC3
    Duration : 2h 9mn
    Bit rate mode : Constant
    Bit rate : 448 Kbps
    Channel(s) : 6 channels
    Channel positions : Front: L C R, Side: L R, LFE
    Sampling rate : 48.0 KHz
    Bit depth : 16 bits
    Compression mode : Lossy
    Stream size : 414 MiB (9%)
    Title : DD 5.1 48 KHz 448 kbpsDub BD-CEE
    Language : Russian
    Default : Yes
    Forced : No

    Audio #2
    ID : 3
    Format : AC-3
    Format/Info : Audio Coding 3
    Mode extension : CM (complete main)
    Format settings, Endianness : Big
    Codec ID : A_AC3
    Duration : 2h 9mn
    Bit rate mode : Constant
    Bit rate : 448 Kbps
    Channel(s) : 6 channels
    Channel positions : Front: L C R, Side: L R, LFE
    Sampling rate : 48.0 KHz
    Bit depth : 16 bits
    Compression mode : Lossy
    Stream size : 414 MiB (9%)
    Title : DD 5.1 48 KHz 448 kbpsOriginal
    Language : English
    Default : No
    Forced : No

    Text #1
    ID : 4
    Format : UTF-8
    Codec ID : S_TEXT/UTF8
    Codec ID/Info : UTF-8 Plain Text
    Language : Russian
    Default : No
    Forced : No

    Text #2
    ID : 5
    Format : UTF-8
    Codec ID : S_TEXT/UTF8
    Codec ID/Info : UTF-8 Plain Text
    Language : English
    Default : No
    Forced : No

    Menu
    00:00:00.000 : en:CHAPTER 01
    00:03:55.402 : en:CHAPTER 02
    00:07:33.119 : en:CHAPTER 03
    00:10:19.953 : en:CHAPTER 04
    00:14:44.383 : en:CHAPTER 05
    00:17:58.744 : en:CHAPTER 06
    00:23:33.245 : en:CHAPTER 07
    00:30:06.304 : en:CHAPTER 08
    00:35:35.633 : en:CHAPTER 09
    00:39:34.205 : en:CHAPTER 10
    00:42:58.910 : en:CHAPTER 11
    00:46:43.300 : en:CHAPTER 12
    00:49:02.606 : en:CHAPTER 13
    00:51:53.610 : en:CHAPTER 14
    00:58:00.644 : en:CHAPTER 15
    01:00:19.115 : en:CHAPTER 16
    01:02:29.746 : en:CHAPTER 17
    01:08:00.910 : en:CHAPTER 18
    01:10:29.225 : en:CHAPTER 19
    01:14:33.803 : en:CHAPTER 20
    01:18:23.365 : en:CHAPTER 21
    01:23:08.984 : en:CHAPTER 22
    01:25:55.817 : en:CHAPTER 23
    01:29:13.348 : en:CHAPTER 24
    01:31:51.673 : en:CHAPTER 25
    01:36:51.472 : en:CHAPTER 26
    01:41:55.276 : en:CHAPTER 27
    01:44:53.120 : en:CHAPTER 28
    01:48:06.647 : en:CHAPTER 29
    01:51:30.851 : en:CHAPTER 30
    01:55:05.899 : en:CHAPTER 31
    01:57:31.211 : en:CHAPTER 32
    02:00:12.372 : en:CHAPTER 33
    Скриншоты для ознакомления

    Матрица / The Matrix (1999) BDRip 720p | D by Xenosag
    ----------------------------------------------------------------------------------------------------------------------------------------------------------------------------------------------------------------------------
    Матрица: Перезагрузка / The Matrix Reloaded (2003) BDRip 720p | D by Xenosag
    Размер скачиваемого торрента: 4.30 GB (4620281526 Bytes)

    Матрица: Революция / The Matrix Revolutions (2003) BDRip 720p | D торрент скачать бесплатно
    загрузка...
    Рейтинг →
     (голосов: 1, оценка 5/5, голосовать можно 1 раз )

    Другие торренты по теме:

  • Матрица: Революция / The Matrix Revolutions (2003) BDRip от Torrent-Xzona | КПК | Лицензия
  • Матрица: Революция / The Matrix Revolutions (2003) HDRip-AVC от Leo.pard | D скачать через торрент бесплатно
  • Матрица: Революция / The Matrix Revolutions (2003) BDRip 1080p от Leonardo and Scarabey | D
  • Матрица: Революция / The Matrix: Revolutions / 2003 / ДБ, ПМ, ПД, АП (Гаврилов, Живов), СТ / Blu-Ray Remux (1080p)


    • Комментарии (0):

      Информация

      Информация

        Посетители, находящиеся в группе Гости, не могут оставлять комментарии в данной новости.

        ↓ Меню



        ↓ Опрос

        А Вы добавили сайт в закладки?
        Да
        Не


        Top 10 за месяц (Фильмы)