.
Авторизация | Регистрация
» » Менталист / The Mentalist (2013) WEB-DL 720p | Universal Russia торрент скачать бесплатно




    Менталист / The Mentalist (2013) WEB-DL 720p | Universal Russia торрент скачать бесплатно

    Опубликовал: Админ | Дата: 27-02-2015, 11:09 | Просмотров: 277



    Детально о кино
    Русское название: Менталист
    Русское название в мировом прокате: The Mentalist
    Создали в: 2013
    Категория жанра: Психологический детектив, криминальный триллер
    Главный режиссер: Крис Лонг, Роксанн Даусон, Том Верика
    Актеры: Саймон Бэйкер, Робин Танни, Тим Кенг, Овайн Йомэн, Аманда Риджетти, Онжаню Эллис, Грегори Итцин, Прюитт Тэйлор Винс, Майкл Рэди, Майкл Гэстон, Эрик Винтер

    Сюжет фильма:
    Патрик Джейн — детектив и независимый консультант из Калифорнийского Бюро Расследований (КБР), он использует свои отточенные, как лезвие, навыки наблюдения для раскрытия тяжких преступлений. В самом Бюро Джейн известен за частые нарушения протокола, а также за его звездное прошлое: он работал медиумом, однако теперь сам признает, что симулировал паранормальные способности. Роль Джейна в раскрытии целой серии загадочных преступлений высоко ценится коллегами. Но суровый старший агент Тереза Лисбон против того, чтоб Джейн работал с ее отрядом, и то вынужденно признает его успехи, то критикует его за театральность, нарциссизм и отсутствие границ.

    Содержание

    01. Роза пустыни / The Desert Rose
    Джейн и Лисбон тайно продолжают свою опасную миссию, чтобы сузить список из семи подозреваемых по делу Красного Джона, расследуя убийство человека, который считается пропавшим 2 года.

    02. Чёрнокрылая красная птица / Black-Winged Redbird
    Джейн обнаруживает важный ключ к методам Красного Джона, команда встречает четырех из подозреваемых, а КБР расследует случай убийства инженера-программиста во время забастовки.

    03. Свадьба в красном / Wedding in Red
    Команда КБР отправляется в Напу расследовать убийство одного из гостей, приехавшего в город на свадьбу. И хотя свадебная церемония была отложена из-за убийства, разговоры с невестой вдохновили Ван Пелт и Ригсби на отважный шаг.

    04. Список из красного / Red-Listed
    Джейн обнаружил, что список фальшивых подозреваемых в деле Красного Джона был украден, и команда понимает, что эти люди находятся в опасности.

    05. Красная татуировка / The Red Tattoo
    Когда видный член Визуализации таинственно убит, Джейн начинает расследовать это дело в надежде, что оно будет служить ключом, который приведет его к Красному Джону.

    06. Огонь и сера / Fire and Brimstone
    С окончательным ключом к разгадке в руке, Джейн пытается собрать оставшихся подозреваемых в деле Красного Джона в одном месте в надежде, что, наконец, выявит его личность.

    07. Великий красный дракон / The Great Red Dragon
    После шокирующих событий в доме Джейна, список подозреваемых в деле Красного Джона сужается... Патрику осталось сделать всего несколько шагов для разгадки тайны, не дающей ему покоя уже много лет.

    08. Кровавый Джон / Red John
    После десяти лет упорных поисков Джейн, наконец, встречается лицом к лицу с Красным Джоном, маньяком, который убил его жену и дочь.

    09. Мои голубые небеса / My Blue Heaven
    Прошло два года после того как Красного Джона убили и Патрик Джейн получает предложение о работе.




    Снималось в: США
    Время просмотра: 00:42:00
    Перевод текста: Профессиональный многоголосый (Universal Russia)

    Скрытый текст

    За звуковые дорожки спасибо lehacom
    За запись звука отдельное спасибо - iupiter
    т.к. Universal порезал сцены насилия (кровь), в коце серии вставлены несколько слов из озвучки BaibaKo.

    Файл
    Кодек для видео: x264
    Качество фильма: WEB-DL 720p
    Информация о видео: ~ 4000 Кбит/с, 1280x720
    Информация о звуке: Русский (AC3, 2 ch, 192 Кбит/с), английский (AC3, 6 ch, 384 Кбит/с)
    Субтитры: английские
    MI

    Общее
    Уникальный идентификатор : 184041767182637759133414918190597184695 (0x8A7527B0EE44020991E90668B1B89CB7)
    Полное имя : E:uploadThe.MentalistThe.Mentalist.s06.WEB-DL.720pMentalist.s06e01.WEB-DL.720p.mkv
    Формат : Matroska
    Версия формата : Version 4 / Version 2
    Размер файла : 1,37 Гбайт
    Продолжительность : 41 м.
    Общий поток : 4691 Кбит/сек
    Название фильма : Created by DeathN2 for Кинозал.ТВ
    Дата кодирования : UTC 2013-12-05 17:49:07
    Программа кодирования : mkvmerge v6.6.0 (;The Edge Of The In Between;) built on Dec 1 2013 17:55:00
    Библиотека кодирования : libebml v1.3.0 libmatroska v1.4.1

    Видео
    Идентификатор : 1
    Формат : AVC
    Формат/Информация : Advanced Video Codec
    Профиль формата : High@L3.1
    Параметр CABAC формата : Нет
    Параметр ReFrames формата : 2 кадра
    Идентификатор кодека : V_MPEG4/ISO/AVC
    Продолжительность : 41 м.
    Битрейт : 4022 Кбит/сек
    Ширина : 1280 пикселей
    Высота : 720 пикселей
    Соотношение сторон : 16:9
    Режим частоты кадров : Постоянный
    Частота кадров : 23,976 кадра/сек
    Цветовое пространство : YUV
    Субдискретизация насыщенности : 4:2:0
    Битовая глубина : 8 бит
    Тип развёртки : Прогрессивная
    Бит/(Пиксели*Кадры) : 0.182
    Размер потока : 1,17 Гбайт (86%)
    Заголовок : Менталист 6x01 Красная пустыня
    Язык : English
    Default : Да
    Forced : Нет
    Основные цвета : BT.709
    Характеристики трансфера : BT.709
    Коэффициенты матрицы : BT.709

    Аудио #1
    Идентификатор : 2
    Формат : AC-3
    Формат/Информация : Audio Coding 3
    Расширение режима : CM (complete main)
    Параметр Endianness формата : Big
    Идентификатор кодека : A_AC3
    Продолжительность : 41 м.
    Вид битрейта : Постоянный
    Битрейт : 192 Кбит/сек
    Каналы : 2 канала
    Расположение каналов : Front: L R
    Частота : 48,0 КГц
    Битовая глубина : 16 бит
    Метод сжатия : С потерями
    Размер потока : 57,3 Мбайт (4%)
    Заголовок : MVO (Universal)
    Язык : Russian
    Default : Да
    Forced : Нет

    Аудио #2
    Идентификатор : 3
    Формат : AC-3
    Формат/Информация : Audio Coding 3
    Расширение режима : CM (complete main)
    Параметр Endianness формата : Big
    Идентификатор кодека : A_AC3
    Продолжительность : 41 м.
    Вид битрейта : Постоянный
    Битрейт : 384 Кбит/сек
    Каналы : 6 каналов
    Расположение каналов : Front: L C R, Side: L R, LFE
    Частота : 48,0 КГц
    Битовая глубина : 16 бит
    Метод сжатия : С потерями
    Размер потока : 115 Мбайт (8%)
    Заголовок : Eng DD5.1
    Язык : English
    Default : Нет
    Forced : Нет

    Текст
    Идентификатор : 4
    Формат : UTF-8
    Идентификатор кодека : S_TEXT/UTF8
    Идентификатор кодека/Информация : UTF-8 Plain Text
    Язык : English
    Default : Да
    Forced : Нет

    Скриншоты для ознакомления

    Размер скачиваемого торрента: 1.37 GB (1468952647 Bytes)

    Менталист / The Mentalist (2013) WEB-DL 720p | Universal Russia торрент скачать бесплатно
    загрузка...
    Рейтинг →
     (голосов: 1, оценка 3/5, голосовать можно 1 раз )

    Другие торренты по теме:

  • Менталист / The Mentalist (2011) WEB-DLRip торрент скачать бесплатно
  • Менталист The Mentalist (2012-2013) WEB-DL 720p | Universal Russia торрент скачать бесплатно
  • Менталист / The Mentalist (2012-2013) WEB-DL 720p | Universal Russia торрент скачать бесплатно
  • Менталист / The Mentalist (2012-2013) WEB-DLRip | Universal Russia скачать через торрент бесплатно
  • Менталист / The Mentalist (2008-2013) BDRip, WEB-DLRip | D | ТВ3 торрент скачать бесплатно
  • Менталист / The Mentalist (2013) HDTVRip торрент скачать бесплатно
  • Менталист / The Mentalist (2013) WEB-DLRip | BaibaKo торрент скачать бесплатно
  • Менталист / The Mentalist (2013) WEB-DLRip | Jetvis Studio торрент скачать бесплатно


    • Комментарии (0):

      Информация

      Информация

        Посетители, находящиеся в группе Гости, не могут оставлять комментарии в данной новости.

        ↓ Меню



        ↓ Опрос

        А Вы добавили сайт в закладки?
        Да
        Не


        Top 10 за неделю (Фильмы)