.
Авторизация | Регистрация
» » Следственный комитет (2012) DVDRip - от NovaLan торрент скачать бесплатно




    Следственный комитет (2012) DVDRip - от NovaLan торрент скачать бесплатно

    Опубликовал: Админ | Дата: 27-02-2015, 11:09 | Просмотров: 336





    Снималось в: Россия
    Создали в: Кинокомпания DiXI TV
    Категория жанра: Детектив
    Создали в: 2012

    Время просмотра: 12 х ~ 01:30:00

    Язык: Русский

    Главный режиссер: Юрий Попович


    Актеры: Елена Морозова, Дмитрий Щербина, Анатолий Гущин, Денис Бондарков, Галина Коньшина, Ангелина Коршунова, Оксана Семёнова, Андрей Лебедев, Николай Дроздовский, Эдуард Рябинин, Венчислав Хотяновский, Анатолий Отраднов, Александр Печенин, Антон Ушаков, Юлия Кокрятская, Евгений Сафронов, Максим Щёголев, Елена Кукушкина



    Сюжет: Прообразами трех главных героев стали три следователя Главного Следственного Управления Следственного Комитета РФ. Все они - люди высоких званий и действительно гении своего дела. Все дела, используемые в сериале - реальные, по которым найдены и осуждены виновные.

    Исходник: DVD9 R5

    Тип релиза: DVDRip

    Контейнер: AVI


    Информация о видео: 704x384 (1.83:1), 23.976 fps, XviD ~1942 kbps avg, 0.30 bit/pixel
    Информация о звуке: 48 kHz, AC3 Dolby Digital, 2.0 ~192.00 kbps avg



    MediaInfo
    Общее
    Полное имя : D:1АААСК1 серия.avi
    Формат : AVI
    Формат/Информация : Audio Video Interleave
    Размер файла : 1,37 Гбайт
    Продолжительность : 1 ч. 31 м.
    Общий поток : 2144 Кбит/сек
    Программа кодирования : VirtualDubMod 1.5.10.3 | www.virtualdub-fr.org || (build 2550/release)
    Библиотека кодирования : VirtualDubMod build 2550/release

    Видео
    Идентификатор : 0
    Формат : MPEG-4 Visual
    Профиль формата : Advanced Simple@L5
    Параметр BVOP формата : 2
    Параметр QPel формата : Нет
    Параметр GMC формата : Без точки перехода
    Параметр матрицы формата : Default (MPEG)
    Режим смешивания : Сжатый битовый поток
    Идентификатор кодека : XVID
    Идентификатор кодека/Подсказка : XviD
    Продолжительность : 1 ч. 31 м.
    Битрейт : 1943 Кбит/сек
    Ширина : 704 пикселя
    Высота : 384 пикселя
    Соотношение сторон : 1,85:1
    Частота кадров : 23,976 кадра/сек
    Цветовое пространство : YUV
    Субдискретизация насыщенности : 4:2:0
    Битовая глубина : 8 бит
    Тип развёртки : Прогрессивная
    Метод сжатия : С потерями
    Бит/(Пиксели*Кадры) : 0.300
    Размер потока : 1,24 Гбайт (91%)
    Библиотека кодирования : XviD 1.2.1 (UTC 2008-12-04)

    Аудио
    Идентификатор : 1
    Формат : AC-3
    Формат/Информация : Audio Coding 3
    Расширение режима : CM (complete main)
    Параметр Endianness формата : Big
    Идентификатор кодека : 2000
    Продолжительность : 1 ч. 31 м.
    Вид битрейта : Постоянный
    Битрейт : 192 Кбит/сек
    Каналы : 2 канала
    Расположение каналов : Front: L R
    Частота : 48,0 КГц
    Битовая глубина : 16 бит
    Метод сжатия : С потерями
    Размер потока : 125 Мбайт (9%)
    Выравнивание : Разделение по промежуткам
    Продолжительность промежутка : 42 мс. (1,00 видеокадр)
    Время предзагрузки промежутка : 500 мс.







    Скриншоты для ознакомления




    Релиз группа:

    Автор рипа:
    Залил: YArl
    Размер скачиваемого торрента: 16.41 GB (17620660224 Bytes)

    Следственный комитет (2012) DVDRip - от NovaLan торрент скачать бесплатно
    загрузка...
    Рейтинг →
     (голосов: 1, оценка 5/5, голосовать можно 1 раз )

    Другие торренты по теме:



      Комментарии (0):

      Информация

      Информация

        Посетители, находящиеся в группе Гости, не могут оставлять комментарии в данной новости.

        ↓ Меню



        ↓ Опрос

        А Вы добавили сайт в закладки?
        Да
        Не


        Top 10 за неделю (Фильмы)