.
Авторизация | Регистрация
Хочешь лучшие торренты? Добавь свой email!
Добавить
» » Соединенные Штаты Лиланда / The United States of Leland (2003) BDRip от New-Team скачать через торрент бесплатно




    Соединенные Штаты Лиланда / The United States of Leland (2003) BDRip от New-Team скачать через торрент бесплатно

    Опубликовал: Админ | Дата: 27-02-2015, 11:09 | Просмотров: 289


    Снималось в: США
    Создали в: MDP Worldwide, Media 8 Entertainment, Thousand Words, Trigger Street Productions
    Категория жанра: драма, мелодрама, криминал
    Создали в: 2003
    Время просмотра: 01:49:10

    Перевод текста: Профессиональный (Двухголосый закадровый)
    Оригинальная аудиодорожка: английский
    Субтитры подготовлены: нет

    Главный режиссер: Мэттью Райан Ходж / Matthew Ryan Hoge

    Актеры:
    Кевин Спейси /Kevin Spacey/, Дон Чидл /Don Cheadle/, Лена Олин /Lena Olin/, Райан Гослинг /Ryan Gosling/, Мартин Донован /Martin Donovan/, Шерилин Фенн /Sherilyn Fenn/, Крис Клайн /Chris Klein/, Энн Магнусон /Ann Magnuson/, Джина Мэлоун /Jena Malone/...

    Сюжет:
    16-летний Лиланд Фицджеральд внезапно зверски убивает ребенка-аутиста. Все: родители, полиция, семья убитого ребенка, друзья, журналисты и сокамерники - пытаются понять причину такой жестокости. А Лиланд молчит... Почему? Возможно, он сам не знает причину своего поступка. Единственный ответ, который он дает - Из-за печали.Он сталкивается с вопросами морали и веры в тяжелых для себя обстоятельствах. В тюрьме Ли находит себе поддержку в лице своего учителя Перла. Перл пытается докопаться до истины и хочет написать о Лиланде книгу. Сначала все однозначно - один преступник и все остальные ужасаются тому, что он сделал. Но потом оказывается, что все эти люди - его отец (известный писатель), подруга-наркоманка, тюремный наставник сами находятся в одном шаге от пропасти, к которой приближались все эти годы... И не они помогают Лиланду, а Лиланд своим отношением к жизни, своим взглядом на мир помогает им разобраться в себе и найти правильный путь. Сделанного назад не вернешь, и даже если ты совершил проступок, это еще не значит, что жизнь на этом закончилась...




    Исходник: BDRemux 1080p
    Тип релиза: BDRip
    Контейнер: AVI

    Информация о видео: 656x368 (16:9), 23,976 fps, XviD ~ 818 kbps avg, 0.141 bit/pixel
    Информация о звуке: 48 kHz, MP3 2.0, 128 kbps

    Раздача от:
    MediaInfo

    Общее
    Полное имя : Soedinennye.shtaty.Lilanda.2003.DVDRip-745_New-team_by_AVP_Studio.avi
    Формат : AVI
    Формат/Информация : Audio Video Interleave
    Размер файла : 746 Мбайт
    Продолжительность : 1 ч. 49 м.
    Общий поток : 955 Кбит/сек
    Программа кодирования : VirtualDubModRus 1.5.10.2 (build 2542/release)
    Библиотека кодирования : VirtualDubMod build 2542/release

    Видео
    Идентификатор : 0
    Формат : MPEG-4 Visual
    Профиль формата : Advanced Simple@L5
    Параметр BVOP формата : 1
    Параметр QPel формата : Нет
    Параметр GMC формата : Без точки перехода
    Параметр матрицы формата : Выборочная
    Идентификатор кодека : XVID
    Идентификатор кодека/Подсказка : XviD
    Продолжительность : 1 ч. 49 м.
    Битрейт : 818 Кбит/сек
    Ширина : 656 пикселей
    Высота : 368 пикселей
    Соотношение сторон : 16:9
    Частота кадров : 23,976 кадра/сек
    Цветовое пространство : YUV
    Субдискретизация насыщенности : 4:2:0
    Битовая глубина : 8 бит
    Тип развёртки : Прогрессивная
    Метод сжатия : С потерями
    Бит/(Пиксели*Кадры) : 0.141
    Размер потока : 639 Мбайт (86%)
    Библиотека кодирования : XviD 73

    Аудио
    Идентификатор : 1
    Формат : MPEG Audio
    Версия формата : Version 1
    Профиль формата : Layer 3
    Идентификатор кодека : 55
    Идентификатор кодека/Подсказка : MP3
    Продолжительность : 1 ч. 49 м.
    Вид битрейта : Постоянный
    Битрейт : 128 Кбит/сек
    Каналы : 2 канала
    Частота : 48,0 КГц
    Метод сжатия : С потерями
    Размер потока : 99,9 Мбайт (13%)
    Выравнивание : Соединение по промежуткам
    Продолжительность промежутка : 42 мс. (1,00 видеокадр)
    Время предзагрузки промежутка : 504 мс.
    Библиотека кодирования : LAME3.99r
    Залил: AVPStudio
    Размер скачиваемого торрента: 745.73 MB (781953024 Bytes)


    Соединенные Штаты Лиланда / The United States of Leland (2003) BDRip от New-Team скачать через торрент бесплатно
    загрузка...
    Рейтинг →
     (голосов: 1, оценка 5/5, голосовать можно 1 раз )

    Другие торренты по теме:

  • О.А. Жидков, В.И. Лафитский - Соединенные Штаты Америки. Конституция и законодательные акты (2012) PDF
  • ЕжоFF Band - Соединенные Штаты Америки (2013) WEBRip 720p
  • Соединенные Штаты Тары / United States of Tara (2009-2011) HDTVRip от UnSlayeR скачать через торрент бесплатно
  • Соединенные Штаты Лиланда / The United States of Leland (2003) BDRip-AVC от New-Team
  • Соединенные Штаты Лиланда / The United States of Leland (2003) BDRip 720p от New-Team скачать через торрент бесплатно
  • Адмирал Колчак и Соединенные Штаты (2014) SATRip скачать через торрент бесплатно
  • Соединенные штаты Лиланда / The United States of Leland (2003) BDRip 1080p | Р2 скачать через торрент бесплатно
  • Соединенные штаты Лиланда / The United States of Leland (2003) HDRip от Scarabey | P2 скачать через торрент бесплатно


    • Комментарии (0):

      Информация

      Информация

        Посетители, находящиеся в группе Гости, не могут оставлять комментарии в данной новости.

        ↓ Меню



        ↓ Опрос

        А Вы добавили сайт в закладки?
        Да
        Не


        Top 10 за месяц (Фильмы)