.
Авторизация | Регистрация
» » На обочине / Sideways (2004) BDRemux 1080p от ExKinoRay | D, Р скачать через торрент бесплатно




    На обочине / Sideways (2004) BDRemux 1080p от ExKinoRay | D, Р скачать через торрент бесплатно

    Опубликовал: Админ | Дата: 27-02-2015, 11:09 | Просмотров: 328




    Детально о кино

    Русское название: На обочине
    Русское название в мировом прокате: Sideways
    Создали в: 2004
    Категория жанра: Драма, мелодрама, комедия
    Снималось в: США, Fox Searchlight Pictures, Michael London Productions, Sideways Productions Inc.
    Главный режиссер: Александр Пэйн
    Актеры: Пол Джаматти, Томас Хейден Чёрч, Вирджиния Мэдсен, Сандра О, Мэрилуиз Берк, Джессика Хехт, Мисси Доти, М. К. Гейни, Алисия Райнер, Шейк Тухманян



    Сюжет фильма: Неудавшийся писатель и потихоньку спивающийся школьный учитель литературы Майлз Рэймонд берет своего лучшего друга, вышедшего в тираж актера Джека, в поездку по винодельням Калифорнии. Джеку нужно расслабиться, так как через неделю у него запланирована свадьба. Майлз же — самый подходящий компаньон для путешествия, поскольку: а) он разбирается в вине; б) может дать дельный совет по стопам своего развода. Два лузера не могли предполагать, что их ждет впереди и насколько эта неделя изменит их жизнь…







    Файл

    Качество фильма: Blu-Ray Remux (1080p)
    Информация о видео: MPEG-4 AVC, 33318 Кбит/с, 1920x1080, 23.976 кадр/с
    Информация о звуке: Русский (AC3, 6 ch, 448 Кбит/с), английский (DTS-HD MA, 6 ch, 3661 Кбит/с)
    Размер скачиваемого торрента: 32.78 ГБ
    Время просмотра: 02:07:00
    Перевод текста: Дублированный, профессиональный многоголосый
    Субтитры: Русские, английские


    Аудио1: Дублированный
    Аудио2: Профессиональный многоголосый закадровый (Tycoon-studio)


    За исходник, огромное спасибо BLUEBIRD




    Инфо-файл

    Общее
    Уникальный идентификатор : 208769492671180805840426956562051726358 (0x9D0F8AAF89B4292DB658F263C0DD7C16)
    Полное имя : C:ЗагрузкиSideways.2004.x264.BDRemux.(1080p.)ExKinoRay.mkv
    Формат : Matroska
    Версия формата : Version 2
    Размер файла : 32,8 Гбайт
    Продолжительность : 2 ч. 7 м.
    Режим общего битрейта : Переменный
    Общий поток : 37,0 Мбит/сек
    Название фильма : На обочине.2004.Сборка ремукса: ollan
    Дата кодирования : UTC 2013-12-06 08:04:52
    Программа кодирования : mkvmerge v5.6.0 (;Kenya Kane;) built on May 27 2012 16:44:04
    Библиотека кодирования : libebml v1.2.3 libmatroska v1.3.0

    Видео
    Идентификатор : 1
    Формат : AVC
    Формат/Информация : Advanced Video Codec
    Профиль формата : High@L4.1
    Параметр CABAC формата : Да
    Параметр ReFrames формата : 4 кадра
    Идентификатор кодека : V_MPEG4/ISO/AVC
    Продолжительность : 2 ч. 7 м.
    Вид битрейта : Переменный
    Максимальный битрейт : 35,4 Мбит/сек
    Ширина : 1920 пикселей
    Высота : 1080 пикселей
    Соотношение сторон : 16:9
    Режим частоты кадров : Постоянный
    Частота кадров : 23,976 кадра/сек
    Цветовое пространство : YUV
    Субдискретизация насыщенности : 4:2:0
    Битовая глубина : 8 бит
    Тип развёртки : Прогрессивная
    Default : Да
    Forced : Нет
    Основные цвета : BT.709
    Характеристики трансфера : BT.709
    Коэффициенты матрицы : BT.709

    Аудио #1
    Идентификатор : 2
    Формат : AC-3
    Формат/Информация : Audio Coding 3
    Расширение режима : CM (complete main)
    Параметр Endianness формата : Big
    Идентификатор кодека : A_AC3
    Продолжительность : 2 ч. 7 м.
    Вид битрейта : Постоянный
    Битрейт : 448 Кбит/сек
    Каналы : 6 каналов
    Расположение каналов : Front: L C R, Side: L R, LFE
    Частота : 48,0 КГц
    Битовая глубина : 16 бит
    Метод сжатия : С потерями
    Размер потока : 407 Мбайт (1%)
    Заголовок : Дублированный
    Язык : Russian
    Default : Да
    Forced : Да

    Аудио #2
    Идентификатор : 3
    Формат : AC-3
    Формат/Информация : Audio Coding 3
    Расширение режима : CM (complete main)
    Параметр Endianness формата : Big
    Идентификатор кодека : A_AC3
    Продолжительность : 2 ч. 7 м.
    Вид битрейта : Постоянный
    Битрейт : 448 Кбит/сек
    Каналы : 6 каналов
    Расположение каналов : Front: L C R, Side: L R, LFE
    Частота : 48,0 КГц
    Битовая глубина : 16 бит
    Метод сжатия : С потерями
    Размер потока : 407 Мбайт (1%)
    Заголовок : Профессиональный многоголосый (Tycoon-studio)
    Язык : Russian
    Default : Нет
    Forced : Нет

    Аудио #3
    Идентификатор : 4
    Формат : DTS
    Формат/Информация : Digital Theater Systems
    Профиль формата : MA / Core
    Режим : 16
    Параметр Endianness формата : Big
    Идентификатор кодека : A_DTS
    Продолжительность : 2 ч. 7 м.
    Вид битрейта : Переменный
    Битрейт : Неизвестно / 1509 Кбит/сек
    Каналы : 6 каналов
    Расположение каналов : Front: L C R, Side: L R, LFE
    Частота : 48,0 КГц
    Битовая глубина : 24 бит
    Метод сжатия : Без потерь / Lossy
    Язык : English
    Default : Нет
    Forced : Нет

    Текст #1
    Идентификатор : 5
    Формат : UTF-8
    Идентификатор кодека : S_TEXT/UTF8
    Идентификатор кодека/Информация : UTF-8 Plain Text
    Язык : Russian
    Default : Нет
    Forced : Нет

    Текст #2
    Идентификатор : 6
    Формат : UTF-8
    Идентификатор кодека : S_TEXT/UTF8
    Идентификатор кодека/Информация : UTF-8 Plain Text
    Язык : English
    Default : Нет
    Forced : Нет

    Меню
    00:00:00.000 : :Chapter 01
    00:05:52.477 : :Chapter 02
    00:08:44.565 : :Chapter 03
    00:14:52.433 : :Chapter 04
    00:17:21.123 : :Chapter 05
    00:20:13.587 : :Chapter 06
    00:23:10.263 : :Chapter 07
    00:27:58.635 : :Chapter 08
    00:31:16.124 : :Chapter 09
    00:33:35.596 : :Chapter 10
    00:39:02.465 : :Chapter 11
    00:43:55.215 : :Chapter 12
    00:48:27.571 : :Chapter 13
    00:52:29.229 : :Chapter 14
    00:55:32.996 : :Chapter 15
    01:00:03.224 : :Chapter 16
    01:02:36.544 : :Chapter 17
    01:08:18.010 : :Chapter 18
    01:12:47.780 : :Chapter 19
    01:15:57.010 : :Chapter 20
    01:19:55.415 : :Chapter 21
    01:22:33.948 : :Chapter 22
    01:24:59.010 : :Chapter 23
    01:29:27.779 : :Chapter 24
    01:35:04.824 : :Chapter 25
    01:39:08.901 : :Chapter 26
    01:42:14.336 : :Chapter 27
    01:49:59.009 : :Chapter 28
    01:53:47.237 : :Chapter 29
    01:57:58.780 : :Chapter 30
    02:00:27.470 : :Chapter 31
    02:03:13.803 : :Chapter 32


    Скриншоты для ознакомления







    Релиз подготовил: Сборка:
    Залил: ollan
    Размер скачиваемого торрента: 32.78 GB (35202546691 Bytes)

    На обочине / Sideways (2004) BDRemux 1080p от ExKinoRay | D, Р скачать через торрент бесплатно
    загрузка...
    Рейтинг →
     (голосов: 1, оценка 4/5, голосовать можно 1 раз )

    Другие торренты по теме:

  • На обочине / Sideways (2004) BDRip 720p от MediaClub | D торрент скачать бесплатно
  • На обочине / Sideways (2004) BDRip 720p от leonardo 59 Scarabey скачать через торрент бесплатно
  • Серия книг - Пикник на обочине. Проект братьев Стругацких (2014-2015) FB2, RTF скачать торрент бесплатно


    • Комментарии (0):

      Информация

      Информация

        Посетители, находящиеся в группе Гости, не могут оставлять комментарии в данной новости.

        ↓ Меню



        ↓ Опрос

        А Вы добавили сайт в закладки?
        Да
        Не


        Top 10 за неделю (Фильмы)