.
Авторизация | Регистрация
Хочешь лучшие торренты? Добавь свой email!
Добавить
» » Парклэнд / Parkland (2013) HDRip | L1 торрент скачать бесплатно




    Парклэнд / Parkland (2013) HDRip | L1 торрент скачать бесплатно

    Опубликовал: Админ | Дата: 27-02-2015, 11:09 | Просмотров: 294



    Детально о кино
    Русское название: Парклэнд
    Русское название в мировом прокате: Parkland
    Создали в: 2013
    Категория жанра: триллер, драма, детектив
    Главный режиссер: Питер Ландесман / Peter Landesman
    Актеры: Зак Эфрон, Марша Гей Харден, Билли Боб Торнтон, Джеки Уивер, Пол Джаматти, Мэтт Барр, Мэллори Мой, Битси Таллоч, Рон Ливингстон, Джейсон Дуглас, Дэвид Харбор, Джеймс Бэдж Дэйл

    Сюжет фильма:
    1963 год. 22 ноября. Даллас. 11:50. Президентский кортеж движется в центр города. 12:30. Раздаются роковые выстрелы. 13:00. Госпиталь Парклэнд. 35-й президент США скончался.
    Что стало поводом к убийству президента? Вопрос, который вот уже полвека держит в напряжении человечество... Последняя версия одного из самых громких и неразгаданных преступлений XX века, убийство Джона Ф. Кеннеди - любимого страной президента, молодого умного политика, гениального любовника, водившего опасные романы - с Мэрлин Монро, и еще сотнями красивейших женщин Америки.




    Снималось в: США
    Время просмотра: 01:33:39
    Перевод текста: Любительское (одноголосое) datynet

    Файл
    Кодек для видео: XviD
    Качество фильма: HDRip (Исх. BDRip 720p)
    Информация о видео: 704x400 (1.76:1), 23.976 fps, XviD build 50 ~2021 kbps avg, 0.30 bit/pixel
    Информация о звуке: 48 kHz, AC3 Dolby Digital, 2/0 (L,R) ch, ~192.00 kbps avg
    Субтитры: нет

    Семпл

    MediaInfo

    Общее
    Полное имя : S:ФильмыПаркленд. 2013. HDRip. 1.45.avi
    Формат : AVI
    Формат/Информация : Audio Video Interleave
    Размер файла : 1,45 Гбайт
    Продолжительность : 1 ч. 33 м.
    Общий поток : 2223 Кбит/сек
    Программа кодирования : VirtualDubMod 1.5.10.3 | www.virtualdub-fr.org || (build 2550/release)
    Библиотека кодирования : VirtualDubMod build 2550/release

    Видео
    Идентификатор : 0
    Формат : MPEG-4 Visual
    Профиль формата : Advanced Simple@L5
    Параметр BVOP формата : 2
    Параметр QPel формата : Нет
    Параметр GMC формата : Без точки перехода
    Параметр матрицы формата : Выборочная
    Идентификатор кодека : XVID
    Идентификатор кодека/Подсказка : XviD
    Продолжительность : 1 ч. 33 м.
    Битрейт : 2021 Кбит/сек
    Ширина : 704 пикс.
    Высота : 400 пикс.
    Соотношение сторон : 16:9
    Частота кадров : 23,976 кадр/сек
    Цветовое пространство : YUV
    Подвыборка цветности : 4:2:0
    Битовая глубина : 8 бит
    Тип развёртки : Прогрессивная
    Метод сжатия : С потерями
    Бит/(Пиксели*Кадры) : 0.299
    Размер потока : 1,32 Гбайт (91%)
    Библиотека кодирования : XviD 1.2.1 (UTC 2008-12-04)

    Аудио
    Идентификатор : 1
    Формат : AC-3
    Формат/Информация : Audio Coding 3
    Расширение режима : CM (complete main)
    Идентификатор кодека : 2000
    Продолжительность : 1 ч. 33 м.
    Вид битрейта : Постоянный
    Битрейт : 192 Кбит/сек
    Каналы : 2 канала
    Расположение каналов : Front: L R
    Частота : 48,0 КГц
    Битовая глубина : 16 бит
    Метод сжатия : С потерями
    Размер потока : 129 Мбайт (9%)
    Выравнивание : Разделение по промежуткам
    Продолжительность промежутка : 42 мс. (1,00 видеокадр)
    Время предзагрузки промежутка : 500 ms

    Скриншоты для ознакомления



    Залил: Losk
    Размер скачиваемого торрента: 1.45 GB (1561325568 Bytes)

    Парклэнд / Parkland (2013) HDRip | L1 торрент скачать бесплатно
    загрузка...
    Рейтинг →
     (голосов: 1, оценка 5/5, голосовать можно 1 раз )

    Другие торренты по теме:

  • Парклэнд / Parkland (2013) HDRip от Rulya74 | L2. L1
  • Парклэнд / Parkland (2013) BDRip 720p | Лицензия от Prok-Torrent
  • Парклэнд / Parkland (2013) HDRip | D | Лицензия
  • Парклэнд / Parkland (2013) BDRip 1080p от denis 100 | D,P2 скачать через торрент бесплатно
  • Парклэнд / Parkland (2013) BDRip-AVC от Rulya74
  • Парклэнд / Parkland (2013) HDRip от Rulya74 | D. L2
  • Парклэнд / Parkland (2013) HDRip от Torrange | D | Лицензия скачать через торрент бесплатно
  • Парклэнд / Parkland (2013) DVD5 от New-Team | D | лицензия


    • Комментарии (0):

      Информация

      Информация

        Посетители, находящиеся в группе Гости, не могут оставлять комментарии в данной новости.

        ↓ Меню



        ↓ Опрос

        А Вы добавили сайт в закладки?
        Да
        Не


        Top 10 за месяц (Фильмы)