.
Авторизация | Регистрация
» » Во имя справедливости / Out for Justice (1991) BDRip by msltel | D, P, P2, A скачать через торрент бесплатно




    Во имя справедливости / Out for Justice (1991) BDRip by msltel | D, P, P2, A скачать через торрент бесплатно

    Опубликовал: Админ | Дата: 27-02-2015, 11:09 | Просмотров: 295



    Русское название: Во имя справедливости
    Русское название в мировом прокате: Out for Justice
    Создали в: 1991
    Категория жанра: Боевик, триллер, драма, криминал
    Снималось в: США, Warner Bros. Pictures
    Главный режиссер: Джон Флинн
    Актеры: Стивен Сигал, Уильям Форсайт, Джерри Орбах, Джо Чампа, Шэрин Митчелл, Сэл Ричардс, Джина Гершон, Джей Аковоне, Ник Корелло, Роберт ЛаСардо, Джон Тоулс-Бей, Джо Спатаро, Рон Брумбилоу, Джэк Чиполла, Чик Дэниел, Джон Сенгер, Стив Тейлор, Джулиус Нассо мл., Дайан Петерсон, Эд Дику, Винсент Нассо, Джерри Стривелли, Джером Альварадо, Дэвид Басальто, Дэнни Иглоуиц, Фрэнк Фагилла Мл., Сэл Сирафино Томасетти, Джанни Руссо, Рональд Макконе, Алан Билор, Джордж Вальехо, Карл Киарфалио, Эдвард Корн, Бенедетто Бонджорно, Энтони ДеСандо, Доминик Кьянезе

    Сюжет фильма: Место действия — Бруклин, время — наши дни. Полицейский Джино Фелино родился и вырос здесь. На его веку многое изменилось, но некоторые перемены он признавать не собирается. Товарищ по детским играм теперь — на другой стороне. Он превратил местные улицы в зоны боевых действий. Сильнее всего на свете Джино желал бы отправить этого сорвавшегося с цепи пса в школу вечного послушания. Но сначала его нужно поймать.

    Качество фильма: BDRip
    Размер скачиваемого торрента: 2.53 ГБ
    Время просмотра: 01:31:24

    Информация о видео: XviD, 1575 Кбит/с, 720x304
    Информация о звуке 1: русский, 48 kHz, AC3, 6 ch, 448 kbps avg, Дублированный, Мост Видео
    Информация о звуке 2: русский, 48 kHz, AC3, 2 ch, 192 kbps avg, Профессиональный многоголосый, ТК Россия
    Информация о звуке 3: русский, 48 kHz, AC3, 6 ch, 384 kbps avg, Авторский, Дмитирй Пучков - Гоблин, с ненормативной лексикой

    Внешние файлы
    Информация о звуке: русский, 48 kHz, AC3, 2 ch, 192 kbps avg, Профессиональный двухголосый, НТВ
    Информация о звуке: русский, 48 kHz, AC3, 6 ch, 384 kbps avg, Авторский, Андрей Гаврилов
    Информация о звуке: русский, 48 kHz, AC3, 2 ch, 192 kbps avg, Авторский, Алексей Михалёв
    Информация о звуке: русский, 48 kHz, AC3, 2 ch, 192 kbps avg, Авторский, Юрий Живов
    Информация о звуке: английский, 48 kHz, AC3, 6 ch, 384 kbps avg, Оригинал
    Субтитры: русские
    Субтитры: английские

    Исходник: RealAmbal (Рутрекер)

    Сравнение с исходником



    MediaInfo
    Общее
    Полное имя : E:VideoVo.imja.spravedlivosti.1991.XviD.BDRipVo.imja.spravedlivosti.1991.AVO.rus.А.Гаврилов.ac3
    Формат : AC-3
    Формат/Информация : Audio Coding 3
    Размер файла : 251 Мбайт
    Продолжительность : 1 ч. 31 м.
    Режим общего битрейта : Постоянный
    Общий поток : 384 Кбит/сек

    Аудио
    Формат : AC-3
    Формат/Информация : Audio Coding 3
    Расширение режима : CM (complete main)
    Параметр Endianness формата : Big
    Продолжительность : 1 ч. 31 м.
    Вид битрейта : Постоянный
    Битрейт : 384 Кбит/сек
    Каналы : 6 каналов
    Расположение каналов : Front: L C R, Side: L R, LFE
    Частота : 48,0 КГц
    Битовая глубина : 16 бит
    Метод сжатия : С потерями
    Размер потока : 251 Мбайт (100%)

    Общее
    Полное имя : E:VideoVo.imja.spravedlivosti.1991.XviD.BDRipVo.imja.spravedlivosti.1991.AVO.rus.А.Михалёв.ac3
    Формат : AC-3
    Формат/Информация : Audio Coding 3
    Размер файла : 126 Мбайт
    Продолжительность : 1 ч. 31 м.
    Режим общего битрейта : Постоянный
    Общий поток : 192 Кбит/сек

    Аудио
    Формат : AC-3
    Формат/Информация : Audio Coding 3
    Расширение режима : CM (complete main)
    Параметр Endianness формата : Big
    Продолжительность : 1 ч. 31 м.
    Вид битрейта : Постоянный
    Битрейт : 192 Кбит/сек
    Каналы : 2 канала
    Расположение каналов : Front: L R
    Частота : 48,0 КГц
    Битовая глубина : 16 бит
    Метод сжатия : С потерями
    Размер потока : 126 Мбайт (100%)

    Общее
    Полное имя : E:VideoVo.imja.spravedlivosti.1991.XviD.BDRipVo.imja.spravedlivosti.1991.AVO.rus.Ю.Живов.ac3
    Формат : AC-3
    Формат/Информация : Audio Coding 3
    Размер файла : 126 Мбайт
    Продолжительность : 1 ч. 31 м.
    Режим общего битрейта : Постоянный
    Общий поток : 192 Кбит/сек

    Аудио
    Формат : AC-3
    Формат/Информация : Audio Coding 3
    Расширение режима : CM (complete main)
    Параметр Endianness формата : Big
    Продолжительность : 1 ч. 31 м.
    Вид битрейта : Постоянный
    Битрейт : 192 Кбит/сек
    Каналы : 2 канала
    Расположение каналов : Front: L R
    Частота : 48,0 КГц
    Битовая глубина : 16 бит
    Метод сжатия : С потерями
    Размер потока : 126 Мбайт (100%)

    Общее
    Полное имя : E:VideoVo.imja.spravedlivosti.1991.XviD.BDRipVo.imja.spravedlivosti.1991.DVO.rus.HTB.ac3
    Формат : AC-3
    Формат/Информация : Audio Coding 3
    Размер файла : 126 Мбайт
    Продолжительность : 1 ч. 31 м.
    Режим общего битрейта : Постоянный
    Общий поток : 192 Кбит/сек

    Аудио
    Формат : AC-3
    Формат/Информация : Audio Coding 3
    Профиль формата : Dolby Digital
    Расширение режима : CM (complete main)
    Параметр Endianness формата : Big
    Продолжительность : 1 ч. 31 м.
    Вид битрейта : Постоянный
    Битрейт : 192 Кбит/сек
    Каналы : 2 канала
    Расположение каналов : Front: L R
    Частота : 48,0 КГц
    Битовая глубина : 16 бит
    Метод сжатия : С потерями
    Размер потока : 126 Мбайт (100%)

    Общее
    Полное имя : E:VideoVo.imja.spravedlivosti.1991.XviD.BDRipVo.imja.spravedlivosti.1991.eng.srt
    Формат : SubRip
    Размер файла : 66,8 Кбайт

    Текст
    Формат : SubRip
    Метод сжатия : Без потерь

    Общее
    Полное имя : E:VideoVo.imja.spravedlivosti.1991.XviD.BDRipVo.imja.spravedlivosti.1991.Original.eng.ac3
    Формат : AC-3
    Формат/Информация : Audio Coding 3
    Размер файла : 251 Мбайт
    Продолжительность : 1 ч. 31 м.
    Режим общего битрейта : Постоянный
    Общий поток : 384 Кбит/сек

    Аудио
    Формат : AC-3
    Формат/Информация : Audio Coding 3
    Расширение режима : CM (complete main)
    Параметр Endianness формата : Big
    Продолжительность : 1 ч. 31 м.
    Вид битрейта : Постоянный
    Битрейт : 384 Кбит/сек
    Каналы : 6 каналов
    Расположение каналов : Front: L C R, Side: L R, LFE
    Частота : 48,0 КГц
    Битовая глубина : 16 бит
    Метод сжатия : С потерями
    Размер потока : 251 Мбайт (100%)

    Общее
    Полное имя : E:VideoVo.imja.spravedlivosti.1991.XviD.BDRipVo.imja.spravedlivosti.1991.rus.srt
    Формат : SubRip
    Размер файла : 82,1 Кбайт

    Текст
    Формат : SubRip
    Метод сжатия : Без потерь

    Общее
    Полное имя : E:VideoVo.imja.spravedlivosti.1991.XviD.BDRipVo.imja.spravedlivosti.1991.XviD.BDRip.avi
    Формат : AVI
    Формат/Информация : Audio Video Interleave
    Размер файла : 1,67 Гбайт
    Продолжительность : 1 ч. 31 м.
    Общий поток : 2618 Кбит/сек
    Программа кодирования : VirtualDubMod 1.5.10.2 (build 2540/release)
    Библиотека кодирования : VirtualDubMod build 2540/release

    Видео
    Идентификатор : 0
    Формат : MPEG-4 Visual
    Профиль формата : Advanced Simple@L5
    Параметр BVOP формата : 1
    Параметр QPel формата : Нет
    Параметр GMC формата : Без точки перехода
    Параметр матрицы формата : Default (H.263)
    Режим смешивания : Сжатый битовый поток
    Идентификатор кодека : XVID
    Идентификатор кодека/Подсказка : XviD
    Продолжительность : 1 ч. 31 м.
    Битрейт : 1575 Кбит/сек
    Ширина : 720 пикселей
    Высота : 304 пикселя
    Соотношение сторон : 2,35:1
    Частота кадров : 23,976 кадра/сек
    Цветовое пространство : YUV
    Субдискретизация насыщенности : 4:2:0
    Битовая глубина : 8 бит
    Тип развёртки : Прогрессивная
    Метод сжатия : С потерями
    Бит/(Пиксели*Кадры) : 0.300
    Размер потока : 1,01 Гбайт (60%)
    Библиотека кодирования : XviD 1.2.1 (UTC 2008-12-04)

    Аудио #1
    Идентификатор : 1
    Формат : AC-3
    Формат/Информация : Audio Coding 3
    Расширение режима : CM (complete main)
    Параметр Endianness формата : Big
    Идентификатор кодека : 2000
    Продолжительность : 1 ч. 31 м.
    Вид битрейта : Постоянный
    Битрейт : 448 Кбит/сек
    Каналы : 6 каналов
    Расположение каналов : Front: L C R, Side: L R, LFE
    Частота : 48,0 КГц
    Битовая глубина : 16 бит
    Метод сжатия : С потерями
    Размер потока : 293 Мбайт (17%)
    Выравнивание : Разделение по промежуткам
    Продолжительность промежутка : 42 мс. (1,00 видеокадр)
    Время предзагрузки промежутка : 500 мс.

    Аудио #2
    Идентификатор : 2
    Формат : AC-3
    Формат/Информация : Audio Coding 3
    Расширение режима : CM (complete main)
    Параметр Endianness формата : Big
    Идентификатор кодека : 2000
    Продолжительность : 1 ч. 31 м.
    Вид битрейта : Постоянный
    Битрейт : 192 Кбит/сек
    Каналы : 2 канала
    Расположение каналов : Front: L R
    Частота : 48,0 КГц
    Битовая глубина : 16 бит
    Метод сжатия : С потерями
    Размер потока : 126 Мбайт (7%)
    Выравнивание : Разделение по промежуткам
    Продолжительность промежутка : 42 мс. (1,00 видеокадр)
    Время предзагрузки промежутка : 500 мс.

    Аудио #3
    Идентификатор : 3
    Формат : AC-3
    Формат/Информация : Audio Coding 3
    Расширение режима : CM (complete main)
    Параметр Endianness формата : Big
    Идентификатор кодека : 2000
    Продолжительность : 1 ч. 31 м.
    Вид битрейта : Постоянный
    Битрейт : 384 Кбит/сек
    Каналы : 6 каналов
    Расположение каналов : Front: L C R, Side: L R, LFE
    Частота : 48,0 КГц
    Битовая глубина : 16 бит
    Метод сжатия : С потерями
    Размер потока : 251 Мбайт (15%)
    Выравнивание : Разделение по промежуткам
    Продолжительность промежутка : 42 мс. (1,00 видеокадр)
    Время предзагрузки промежутка : 500 мс.
    Скриншоты для ознакомления



    Залил: msltel
    Размер скачиваемого торрента: 2.53 GB (2716147830 Bytes)

    Во имя справедливости / Out for Justice (1991) BDRip by msltel | D, P, P2, A скачать через торрент бесплатно
    загрузка...
    Рейтинг →
     (голосов: 1, оценка 3/5, голосовать можно 1 раз )

    Другие торренты по теме:



      Комментарии (0):

      Информация

      Информация

        Посетители, находящиеся в группе Гости, не могут оставлять комментарии в данной новости.

        ↓ Меню



        ↓ Опрос

        А Вы добавили сайт в закладки?
        Да
        Не


        Top 10 за неделю (Фильмы)