.
Авторизация | Регистрация
» » Меня зовут Троица / Lo chiamavano Trinita (1970) BDRip 720p | P, P2, A | Полная версия скачать через торрент бесплатно




    Меня зовут Троица / Lo chiamavano Trinita (1970) BDRip 720p | P, P2, A | Полная версия скачать через торрент бесплатно

    Опубликовал: Админ | Дата: 27-02-2015, 11:09 | Просмотров: 288



    Русское название: Меня зовут Троица
    Русское название в мировом прокате: Lo chiamavano Trinit?... (They Call Me Trinity)
    Создали в: 1970
    Категория жанра: Комедия, вестерн
    Главный режиссер: Энцо Барбони
    Актеры: Теренс Хилл, Бад Спенсер, Фарли Грейнджер, Елена Педемонте, Стеффен Захариас, Дэн Стёрки, Гизела Хан, Эцио Марано, Лючано Росси

    Сюжет: Вольный стрелок Троица, прозванный за умение быстро и метко стрелять Правой рукой дьявола, приезжает в город, где натыкается на своего сводного брата Бамбино (по кличке Левая рука дьявола). Их мать — содержательница публичного дома, в прошлом — проститутка, поэтому братья не знают, кто были их отцы. Бамбино работает в городе шерифом (на самом-то деле он — грабитель, но, сломав настоящему шерифу ногу, он решил занять его место, чтобы на время залечь на дно) и Троица решает ему помочь. Община мормонов, приняв их за реальных служителей закона, просит найти управу на главного местного землевладельца и его банду. Обе руки дьявола не позволят свершиться беззаконию. Точнее, они и сами-то не прочь совершить какое-нибудь преступление, однако Троица всерьез западает на двух мормонских цыпочек, так что всех негодяев ожидает кровавая баня...

    Снималось в: США, Lionsgate
    Время просмотра: 01:57:44
    Перевод текста: Профессиональный многоголосый, профессиональный двухголосый, авторский

    Качество фильма: BDRip 720p
    Информация о видео: MPEG-4 AVC, 6585 Кбит/с, 1280x532
    Информация о звуке#1: Русский AC3 5.1 48 kHz 384 kbps – многоголосый (Film prestige) - в основе итальянский
    Информация о звуке#2: Русский AC3 2.0 48 kHz 224 kbps – двухголосый - в основе английский
    Информация о звуке#3: Русский AC3 2.0 48 kHz 192 kbps – одноголосый (А. Михалёв) - в основе английский
    Информация о звуке#4: Итальянский DTS 2.0 48 kHz 755 kbps 16-bit
    Информация о звуке#5: Английский DTS 2.0 48 kHz 755 kbps 16-bit
    Субтитры: Русские (Forsed) - на расширенные сцены, русские (Full), английские

    Инфо
    Lo.chiamavano.Trinita.1970.x264.720p.BDRip.mkv
    Format : Matroska
    Format version : Version 4 / Version 2
    File size : 7.05 GiB
    Duration : 1h 53mn
    Overall bit rate : 8 900 Kbps
    Movie name : Lo chiamavano Trinit? Uncut (1970)
    Encoded date : UTC 2013-12-08 03:19:24
    Writing application : mkvmerge v6.6.0 (;The Edge Of The In Between;) built on Dec 1 2013 17:55:00
    Writing library : libebml v1.3.0 libmatroska v1.4.1

    Video
    ID : 1
    Format : AVC
    Format/Info : Advanced Video Codec
    Format profile : High@L4.1
    Format settings, CABAC : Yes
    Format settings, ReFrames : 8 frames
    Codec ID : V_MPEG4/ISO/AVC
    Duration : 1h 53mn
    Bit rate : 6 585 Kbps
    Width : 1 280 pixels
    Height : 532 pixels
    Display aspect ratio : 2.40:1
    Frame rate mode : Constant
    Frame rate : 23.976 fps
    Color space : YUV
    Chroma subsampling : 4:2:0
    Bit depth : 8 bits
    Scan type : Progressive
    Bits/(Pixel*Frame) : 0.403
    Stream size : 5.08 GiB (72%)
    Title : Lo chiamavano Trinit? Uncut (1970)
    Writing library : x264 core 138 r2358 9e941d1
    Encoding settings : cabac=1 / ref=8 / deblock=1:-3:-3 / analyse=0x3:0x113 / me=umh / subme=10 / psy=1 / psy_rd=1.00:0.20 / mixed_ref=1 / me_range=32 / chroma_me=1 / trellis=2 / 8x8dct=1 / cqm=0 / deadzone=21,11 / fast_pskip=0 / chroma_qp_offset=-3 / threads=12 / lookahead_threads=3 / sliced_threads=0 / nr=0 / decimate=0 / interlaced=0 / bluray_compat=0 / constrained_intra=0 / bframes=14 / b_pyramid=2 / b_adapt=2 / b_bias=0 / direct=3 / weightb=1 / open_gop=0 / weightp=2 / keyint=240 / keyint_min=23 / scenecut=40 / intra_refresh=0 / rc_lookahead=40 / rc=2pass / mbtree=0 / bitrate=6585 / ratetol=1.0 / qcomp=0.60 / qpmin=0 / qpmax=69 / qpstep=4 / cplxblur=20.0 / qblur=0.5 / vbv_maxrate=50000 / vbv_bufsize=62500 / nal_hrd=none / ip_ratio=1.40 / pb_ratio=1.30 / aq=1:1.00
    Language : English
    Default : Yes
    Forced : No

    Audio #1
    ID : 2
    Format : AC-3
    Format/Info : Audio Coding 3
    Mode extension : CM (complete main)
    Format settings, Endianness : Big
    Codec ID : A_AC3
    Duration : 1h 53mn
    Bit rate mode : Constant
    Bit rate : 384 Kbps
    Channel count : 6 channels
    Channel positions : Front: L C R, Side: L R, LFE
    Sampling rate : 48.0 KHz
    Bit depth : 16 bits
    Compression mode : Lossy
    Stream size : 312 MiB (4%)
    Title : MVO
    Language : Russian
    Default : Yes
    Forced : No

    Audio #2
    ID : 3
    Format : AC-3
    Format/Info : Audio Coding 3
    Mode extension : CM (complete main)
    Format settings, Endianness : Big
    Codec ID : A_AC3
    Duration : 1h 53mn
    Bit rate mode : Constant
    Bit rate : 224 Kbps
    Channel count : 2 channels
    Channel positions : Front: L R
    Sampling rate : 48.0 KHz
    Bit depth : 16 bits
    Compression mode : Lossy
    Stream size : 182 MiB (3%)
    Title : DVO
    Language : Russian
    Default : No
    Forced : No

    Audio #3
    ID : 4
    Format : AC-3
    Format/Info : Audio Coding 3
    Mode extension : CM (complete main)
    Format settings, Endianness : Big
    Codec ID : A_AC3
    Duration : 1h 53mn
    Bit rate mode : Constant
    Bit rate : 192 Kbps
    Channel count : 2 channels
    Channel positions : Front: L R
    Sampling rate : 48.0 KHz
    Bit depth : 16 bits
    Compression mode : Lossy
    Stream size : 156 MiB (2%)
    Title : AVO (А. Михалёв)
    Language : Russian
    Default : No
    Forced : No

    Audio #4
    ID : 5
    Format : DTS
    Format/Info : Digital Theater Systems
    Mode : 16
    Format settings, Endianness : Big
    Codec ID : A_DTS
    Duration : 1h 53mn
    Bit rate mode : Constant
    Bit rate : 755 Kbps
    Channel count : 2 channels
    Channel positions : Front: L R
    Sampling rate : 48.0 KHz
    Bit depth : 16 bits
    Compression mode : Lossy
    Stream size : 612 MiB (8%)
    Title : Original
    Language : Italian
    Default : No
    Forced : No

    Audio #5
    ID : 6
    Format : DTS
    Format/Info : Digital Theater Systems
    Mode : 16
    Format settings, Endianness : Big
    Codec ID : A_DTS
    Duration : 1h 53mn
    Bit rate mode : Constant
    Bit rate : 755 Kbps
    Channel count : 2 channels
    Channel positions : Front: L R
    Sampling rate : 48.0 KHz
    Bit depth : 16 bits
    Compression mode : Lossy
    Stream size : 612 MiB (8%)
    Title : English
    Language : English
    Default : No
    Forced : No

    Text #1
    ID : 7
    Format : UTF-8
    Codec ID : S_TEXT/UTF8
    Codec ID/Info : UTF-8 Plain Text
    Title : Russian (Forsed)
    Language : Russian
    Default : Yes
    Forced : No

    Text #2
    ID : 8
    Format : UTF-8
    Codec ID : S_TEXT/UTF8
    Codec ID/Info : UTF-8 Plain Text
    Title : Russian (Full)
    Language : Russian
    Default : No
    Forced : No

    Text #3
    ID : 9
    Format : UTF-8
    Codec ID : S_TEXT/UTF8
    Codec ID/Info : UTF-8 Plain Text
    Title : English
    Language : English
    Default : No
    Forced : No

    Menu
    00:00:00.000 : en:Chapter 1
    00:15:11.327 : en:Chapter 2
    00:26:37.429 : en:Chapter 3
    00:47:10.661 : en:Chapter 4
    00:58:34.844 : en:Chapter 5
    01:12:48.280 : en:Chapter 6
    01:30:59.203 : en:Chapter 7
    01:46:33.887 : en:Chapter 8
    Скриншоты для ознакомления


    Размер скачиваемого торрента: 7.05 GB (7571646593 Bytes)

    Меня зовут Троица / Lo chiamavano Trinita (1970) BDRip 720p | P, P2, A | Полная версия скачать через торрент бесплатно
    загрузка...
    Рейтинг →
     (голосов: 1, оценка 4/5, голосовать можно 1 раз )

    Другие торренты по теме:



      Комментарии (0):

      Информация

      Информация

        Посетители, находящиеся в группе Гости, не могут оставлять комментарии в данной новости.

        ↓ Меню



        ↓ Опрос

        А Вы добавили сайт в закладки?
        Да
        Не


        Top 10 за неделю (Фильмы)