.
Авторизация | Регистрация
Хочешь лучшие торренты? Добавь свой email!
Добавить
» » Пипец / Kick-Ass (2010) BDRip 1080p | D, A, L1 скачать через торрент бесплатно




    Пипец / Kick-Ass (2010) BDRip 1080p | D, A, L1 скачать через торрент бесплатно

    Опубликовал: Админ | Дата: 27-02-2015, 11:09 | Просмотров: 353



    Русское название: Пипец
    Русское название в мировом прокате: Kick-Ass
    Создали в: 2010
    Категория жанра: Боевик, триллер, комедия, криминал, комикс
    Главный режиссер: Мэттью Вон
    Актеры: Николас Кейдж, Клои Грэйс Моретц, Марк Стронг, Кристофер Минц-Плассе, Аарон Джонсон, Гэррет М. Браун, Кларк Дьюк, Ивэн Питерс, Дебора Твисс, Линдси Фонсека, Софи Ву, Элизабет МакГоверн, Стю Ладж Райли

    Сюжет: Полковник в отставке Джон Матрикс — бывший командир спецотряда, участвовавшего в секретных операциях на Ближнем Востоке, СССР и Центральной Америке. Находясь в отличной физической форме и владея знаниями, которые делают его супер-солдатом, полковник в отставке Джон Матрикс живет под другим именем в большом доме со своей дочерью вдали от города. Но спокойную жизнь нарушает его старый враг, похищая 11-летнюю дочь полковника. И вспыхнувший ненавистью Джон Матрикс безжалостно убивает всех, кто становится у него на пути к спасению дочери…

    Снималось в: США, Lionsgate
    Время просмотра: 01:57:44
    Перевод текста: Дублированный, авторский, любительский одноголосый



    Качество фильма: BDRip 1080p
    Информация о видео: MPEG-4 AVC, 11.0 Мбит/с, 1920x800
    Информация о звуке#1: Русский (DTS, 6 ch, 768 Кбит/с) - Дубляж (R5)
    Информация о звуке#2: Русский (AC3, 6 ch, 384 Кбит/с) - Дубляж (нецензурный) R5
    Информация о звуке#3: Русский (AC3, 6 ch, 448 Кбит/с) - Авторский (нецензурный) Пучков
    Информация о звуке#4: Русский (AC3, 6 ch, 448 Кбит/с) - Авторский Пучков
    Информация о звуке#5: Русский (DTS, 6 ch, 1536 Кбит/с) - Авторский Сербин
    Информация о звуке#6: Русский (DTS, 6 ch, 1536 Кбит/с) - Любительский одноголосый (Doctor Joker) Матвеев
    Информация о звуке#7: Русский (DTS, 6 ch, 1536 Кбит/с) - Авторский Карповский
    Информация о звуке#8: Русский (AC3, 6 ch, 448 Кбит/с) - Любительский одноголосый (Zamez)
    Информация о звуке#9: Английский (DTS, 6 ch, 1536 Кбит/с)
    Информация о звуке#10: Английский (AAC, 2 ch, 77 Кбит/с) Комментарии сценариста-режиссера Мэттью Вона
    Субтитры: Русские, английские

    Инфо
    Полное имя : Pipec.2010.x264.BDRip.(1080p).HDClub.mkv
    Формат : Matroska
    Версия формата : Version 2
    Размер файла : 16,1 Гбайт
    Продолжительность : 1 ч. 57 м.
    Общий поток : 19,6 Мбит/сек
    Название фильма : Kick-Ass (2010) - Release for HDCLUB by Skazhutin
    Дата кодирования : UTC 2012-06-19 11:38:39
    Программа кодирования : mkvmerge v5.6.0 (;Kenya Kane;) built on May 27 2012 16:44:04
    Библиотека кодирования : libebml v1.2.3 libmatroska v1.3.0
    Attachment : Yes

    Видео
    Идентификатор : 1
    Формат : AVC
    Формат/Информация : Advanced Video Codec
    Профиль формата : High@L4.1
    Параметр CABAC формата : Да
    Параметр ReFrames формата : 5 кадров
    Идентификатор кодека : V_MPEG4/ISO/AVC
    Продолжительность : 1 ч. 57 м.
    Номинальный битрейт : 11,0 Мбит/сек
    Ширина : 1920 пикселей
    Высота : 800 пикселей
    Соотношение сторон : 2,40:1
    Частота кадров : 23,976 кадра/сек
    Цветовое пространство : YUV
    Субдискретизация насыщенности : 4:2:0
    Битовая глубина : 8 бит
    Тип развёртки : Прогрессивная
    Бит/(Пиксели*Кадры) : 0.299
    Заголовок : Release for HDCLUB
    Библиотека кодирования : x264 core 104 r1683 62997d6
    Настройки программы : cabac=1 / ref=5 / deblock=1:-3:-3 / analyse=0x3:0x113 / me=tesa / subme=10 / psy=1 / psy_rd=1.00:0.00 / mixed_ref=1 / me_range=16 / chroma_me=1 / trellis=2 / 8x8dct=1 / cqm=0 / deadzone=21,11 / fast_pskip=0 / chroma_qp_offset=-2 / threads=12 / sliced_threads=0 / nr=0 / decimate=0 / interlaced=0 / constrained_intra=0 / bframes=7 / b_pyramid=2 / b_adapt=2 / b_bias=0 / direct=3 / weightb=1 / open_gop=1 / weightp=2 / keyint=250 / keyint_min=23 / scenecut=40 / intra_refresh=0 / rc=2pass / mbtree=0 / bitrate=11000 / ratetol=1.0 / qcomp=0.60 / qpmin=10 / qpmax=51 / qpstep=4 / cplxblur=20.0 / qblur=0.5 / ip_ratio=1.40 / pb_ratio=1.30 / aq=1:0.80
    Язык : English
    Default : Да
    Forced : Нет

    Аудио #1
    Идентификатор : 2
    Формат : DTS
    Формат/Информация : Digital Theater Systems
    Идентификатор кодека : A_DTS
    Продолжительность : 1 ч. 57 м.
    Вид битрейта : Постоянный
    Битрейт : 755 Кбит/сек
    Каналы : 6 каналов
    Расположение каналов : Front: L C R, Side: L R, LFE
    Частота : 48,0 КГц
    Битовая глубина : 24 бит
    Метод сжатия : С потерями
    Размер потока : 635 Мбайт (4%)
    Заголовок : DTS 5.1 @ 768 kbps - Дублированный, R5
    Язык : Russian
    Default : Нет
    Forced : Нет

    Аудио #2
    Идентификатор : 3
    Формат : AC-3
    Формат/Информация : Audio Coding 3
    Расширение режима : CM (complete main)
    Параметр Endianness формата : Big
    Идентификатор кодека : A_AC3
    Продолжительность : 1 ч. 57 м.
    Вид битрейта : Постоянный
    Битрейт : 384 Кбит/сек
    Каналы : 6 каналов
    Расположение каналов : Front: L C R, Side: L R, LFE
    Частота : 48,0 КГц
    Битовая глубина : 16 бит
    Метод сжатия : С потерями
    Размер потока : 323 Мбайт (2%)
    Заголовок : AC3 5.1 @ 384 kbps - Дублированный (нецензурный), R5
    Язык : Russian
    Default : Да
    Forced : Нет

    Аудио #3
    Идентификатор : 4
    Формат : AC-3
    Формат/Информация : Audio Coding 3
    Расширение режима : CM (complete main)
    Параметр Endianness формата : Big
    Идентификатор кодека : A_AC3
    Продолжительность : 1 ч. 57 м.
    Вид битрейта : Постоянный
    Битрейт : 448 Кбит/сек
    Каналы : 6 каналов
    Расположение каналов : Front: L C R, Side: L R, LFE
    Частота : 48,0 КГц
    Битовая глубина : 16 бит
    Метод сжатия : С потерями
    Размер потока : 377 Мбайт (2%)
    Заголовок : AC3 5.1 @ 448 kbps - Одноголосый (нецензурный), Д. Пучков
    Язык : Russian
    Default : Нет
    Forced : Нет

    Аудио #4
    Идентификатор : 5
    Формат : AC-3
    Формат/Информация : Audio Coding 3
    Расширение режима : CM (complete main)
    Параметр Endianness формата : Big
    Идентификатор кодека : A_AC3
    Продолжительность : 1 ч. 57 м.
    Вид битрейта : Постоянный
    Битрейт : 448 Кбит/сек
    Каналы : 6 каналов
    Расположение каналов : Front: L C R, Side: L R, LFE
    Частота : 48,0 КГц
    Битовая глубина : 16 бит
    Метод сжатия : С потерями
    Размер потока : 377 Мбайт (2%)
    Заголовок : AC3 5.1 @ 448 kbps - Одноголосый, Д. Пучков
    Язык : Russian
    Default : Нет
    Forced : Нет

    Аудио #5
    Идентификатор : 6
    Формат : DTS
    Формат/Информация : Digital Theater Systems
    Идентификатор кодека : A_DTS
    Продолжительность : 1 ч. 57 м.
    Вид битрейта : Постоянный
    Битрейт : 1510 Кбит/сек
    Каналы : 6 каналов
    Расположение каналов : Front: L C R, Side: L R, LFE
    Частота : 48,0 КГц
    Битовая глубина : 24 бит
    Метод сжатия : С потерями
    Размер потока : 1,24 Гбайт (8%)
    Заголовок : DTS 5.1 @ 1536 kbps - Одноголосый, Ю. Сербин
    Язык : Russian
    Default : Нет
    Forced : Нет

    Аудио #6
    Идентификатор : 7
    Формат : DTS
    Формат/Информация : Digital Theater Systems
    Идентификатор кодека : A_DTS
    Продолжительность : 1 ч. 57 м.
    Вид битрейта : Постоянный
    Битрейт : 1510 Кбит/сек
    Каналы : 6 каналов
    Расположение каналов : Front: L C R, Side: L R, LFE
    Частота : 48,0 КГц
    Битовая глубина : 24 бит
    Метод сжатия : С потерями
    Размер потока : 1,24 Гбайт (8%)
    Заголовок : DTS 5.1 @ 1536 kbps - Одноголосый, Doctor Joker
    Язык : Russian
    Default : Нет
    Forced : Нет

    Аудио #7
    Идентификатор : 8
    Формат : DTS
    Формат/Информация : Digital Theater Systems
    Идентификатор кодека : A_DTS
    Продолжительность : 1 ч. 57 м.
    Вид битрейта : Постоянный
    Битрейт : 1510 Кбит/сек
    Каналы : 6 каналов
    Расположение каналов : Front: L C R, Side: L R, LFE
    Частота : 48,0 КГц
    Битовая глубина : 24 бит
    Метод сжатия : С потерями
    Размер потока : 1,24 Гбайт (8%)
    Заголовок : DTS 5.1 @ 1536 kbps - Одноголосый, А. Карповский
    Язык : Russian
    Default : Нет
    Forced : Нет

    Аудио #8
    Идентификатор : 9
    Формат : AC-3
    Формат/Информация : Audio Coding 3
    Расширение режима : CM (complete main)
    Параметр Endianness формата : Big
    Идентификатор кодека : A_AC3
    Продолжительность : 1 ч. 57 м.
    Вид битрейта : Постоянный
    Битрейт : 448 Кбит/сек
    Каналы : 6 каналов
    Расположение каналов : Front: L C R, Side: L R, LFE
    Частота : 48,0 КГц
    Битовая глубина : 16 бит
    Метод сжатия : С потерями
    Размер потока : 377 Мбайт (2%)
    Заголовок : AC3 5.1 @ 448 kbps - Одноголосый, zamez
    Язык : Russian
    Default : Нет
    Forced : Нет

    Аудио #9
    Идентификатор : 10
    Формат : DTS
    Формат/Информация : Digital Theater Systems
    Идентификатор кодека : A_DTS
    Продолжительность : 1 ч. 57 м.
    Вид битрейта : Постоянный
    Битрейт : 1510 Кбит/сек
    Каналы : 6 каналов
    Расположение каналов : Front: L C R, Side: L R, LFE
    Частота : 48,0 КГц
    Битовая глубина : 24 бит
    Метод сжатия : С потерями
    Размер потока : 1,24 Гбайт (8%)
    Заголовок : DTS 5.1 @ 1536 kbps
    Язык : English
    Default : Нет
    Forced : Нет

    Аудио #10
    Идентификатор : 11
    Формат : AAC
    Формат/Информация : Advanced Audio Codec
    Профиль формата : HE-AAC / LC
    Идентификатор кодека : A_AAC
    Продолжительность : 1 ч. 57 м.
    Каналы : 2 канала
    Расположение каналов : Front: L R
    Частота : 48,0 КГц / 24,0 КГц
    Метод сжатия : С потерями
    Заголовок : AAC 2.0 @ 77 kbps - Commentary with Writer-Director Matthew Vaughn
    Язык : English
    Default : Нет
    Forced : Нет

    Текст #1
    Идентификатор : 12
    Формат : UTF-8
    Идентификатор кодека : S_TEXT/UTF8
    Идентификатор кодека/Информация : UTF-8 Plain Text
    Заголовок : R5
    Язык : Russian
    Default : Нет
    Forced : Нет

    Текст #2
    Идентификатор : 13
    Формат : UTF-8
    Идентификатор кодека : S_TEXT/UTF8
    Идентификатор кодека/Информация : UTF-8 Plain Text
    Заголовок : Doctor Joker
    Язык : Russian
    Default : Нет
    Forced : Нет

    Текст #3
    Идентификатор : 14
    Формат : UTF-8
    Идентификатор кодека : S_TEXT/UTF8
    Идентификатор кодека/Информация : UTF-8 Plain Text
    Заголовок : R5 (resubed by stfuuu)
    Язык : Russian
    Default : Нет
    Forced : Нет

    Текст #4
    Идентификатор : 15
    Формат : UTF-8
    Идентификатор кодека : S_TEXT/UTF8
    Идентификатор кодека/Информация : UTF-8 Plain Text
    Заголовок : voronine
    Язык : Russian
    Default : Нет
    Forced : Нет

    Текст #5
    Идентификатор : 16
    Формат : UTF-8
    Идентификатор кодека : S_TEXT/UTF8
    Идентификатор кодека/Информация : UTF-8 Plain Text
    Заголовок : voronine, цветные
    Язык : Russian
    Default : Нет
    Forced : Нет

    Текст #6
    Идентификатор : 17
    Формат : UTF-8
    Идентификатор кодека : S_TEXT/UTF8
    Идентификатор кодека/Информация : UTF-8 Plain Text
    Заголовок : voronine, для плохослышащих
    Язык : Russian
    Default : Нет
    Forced : Нет

    Текст #7
    Идентификатор : 18
    Формат : UTF-8
    Идентификатор кодека : S_TEXT/UTF8
    Идентификатор кодека/Информация : UTF-8 Plain Text
    Заголовок : voronine, цветные, для плохослышащих
    Язык : Russian
    Default : Нет
    Forced : Нет

    Текст #8
    Идентификатор : 19
    Формат : UTF-8
    Идентификатор кодека : S_TEXT/UTF8
    Идентификатор кодека/Информация : UTF-8 Plain Text
    Язык : English
    Default : Нет
    Forced : Нет

    Текст #9
    Идентификатор : 20
    Формат : UTF-8
    Идентификатор кодека : S_TEXT/UTF8
    Идентификатор кодека/Информация : UTF-8 Plain Text
    Заголовок : SDH
    Язык : English
    Default : Нет
    Forced : Нет

    Меню
    00:00:00.000 : :1. A Regular Guy
    00:05:33.333 : :2. Be Honest
    00:15:55.621 : :3. Time To Engage
    00:21:10.060 : :4. Pop Quiz
    00:28:17.696 : :5. Here Kitty
    00:47:52.953 : :6. Daddy and Marcus
    00:52:34.818 : :7. Red Mist
    01:03:16.835 : :8. Watch This
    01:10:16.879 : :9. Worth Living For
    01:16:25.122 : :10. Need To Meet
    01:25:17.279 : :11. Hit Girl
    01:30:26.046 : :12. Job To Finish
    01:38:17.350 : :13. Under Control
    01:43:57.982 : :14. Playtime is Over
    01:47:05.419 : :15. Time To Go Home
    01:49:47.122 : :16. Opened A Door
    Скриншоты для ознакомления


    Размер скачиваемого торрента: 16.12 GB (17311895238 Bytes)

    Пипец / Kick-Ass (2010) BDRip 1080p | D, A, L1 скачать через торрент бесплатно
    загрузка...
    Рейтинг →
     (голосов: 1, оценка 5/5, голосовать можно 1 раз )

    Другие торренты по теме:

  • OST - Пипец / Kick-Ass (2010) MP3
  • Пипец / Kick-Ass (2010) BDRip-AVC | iPad
  • Пипец 2 / Kick-Ass 2 (2013) HD 1080p | Трейлер
  • Пипец-2 / Kick-Ass 2 (2013) WEBRip 720p | L1
  • Пипец-2 / Kick-Ass 2 (2013) WEBRip | L1
  • Пипец 2 / Kick-Ass 2 (2013) WEBRip | D | Звук с TS
  • OST - Пипец 1-2 / Kick-Ass 1-2 (2010-2013) MP3
  • Пипец 2 / Kick-Ass 2 (2013) WEBD-LRip | iTunes скачать через торрент бесплатно


    • Комментарии (0):

      Информация

      Информация

        Посетители, находящиеся в группе Гости, не могут оставлять комментарии в данной новости.

        ↓ Меню



        ↓ Опрос

        А Вы добавили сайт в закладки?
        Да
        Не


        Top 10 за месяц (Фильмы)