.
Авторизация | Регистрация
» » Путешественник скорби / The Grief Tourist (2012) WEB-DLRip-AVC | L2 скачать через торрент бесплатно




    Путешественник скорби / The Grief Tourist (2012) WEB-DLRip-AVC | L2 скачать через торрент бесплатно

    Опубликовал: Админ | Дата: 27-02-2015, 11:09 | Просмотров: 256



    Детально о кино
    Русское название: Путешественник скорби
    Русское название в мировом прокате: The Grief Tourist
    Создали в: 2012
    Категория жанра: триллер, драма
    Главный режиссер: Сури Кришнамма
    Актеры: Мелани Гриффит, Прюитт Тэйлор Винс, Майкл Кудлиц, Сюзанн Куэст, Эдди Дж. Фернандез, Брэд Буфанда, Эбигейл Шрайдер, Найо Уоллес, Саманта Лестер, Крис Хэйес

    Сюжет фильма: Психологический триллер показывает нам мрачное хобби Джим Тана и его не менее мрачную сущность. Джима Тана можно не заметить, когда он проходит мимо. Но присмотревшись к нему, вы почувствуете его голод, глубокий голод ненасытной американской души, всегда ищущий, кого бы пожрать. И не важно кого - лишь бы заполнить ту жгущую, необъяснимую пустоту внутри него. Наваждением Джима становится его хобби: путешествие по местам, где маньяки и психопаты совершали свои убийства. Джим одержим личностью психопата Карла Марзнапа, убившего свою семью и многих жителей своего города. Его увлеченность Карлом связана тем, что Джим ассоциирует себя с ним, поскольку их судьбы схожи. В путешествии, Джим утрачивает контроль над реальностью, пустота разрастается все больше и он совершает очередное убийство...



    Снималось в: США
    Время просмотра: 01:20:23
    Перевод текста: Любительский (двухголосый) DeadSno den904
    Примечание: Присутствует ненормативная лексика!

    Файл
    Тип видео: MKV
    Качество фильма: WEB-DLRip-AVC
    Информация о видео: 1024x576, 2207 kb/s
    Информация о звуке: AC3, 384 kb/s (6 ch)
    Субтитры: English





    MI

    Format : Matroska
    Format version : Version 4 / Version 2
    File size : 1.45 GiB
    Duration : 1h 20mn
    Overall bit rate : 2 590 Kbps
    Encoded date : UTC 2013-12-07 23:05:06
    Writing application : mkvmerge v6.1.0 (;Old Devil;) built on Mar 4 2013 09:10:42
    Writing library : libebml v1.3.0 libmatroska v1.4.0

    Video
    ID : 1
    Format : AVC
    Format/Info : Advanced Video Codec
    Format profile : High@L4.1
    Format settings, CABAC : Yes
    Format settings, ReFrames : 10 frames
    Codec ID : V_MPEG4/ISO/AVC
    Duration : 1h 20mn
    Bit rate : 2 207 Kbps
    Width : 1 024 pixels
    Height : 576 pixels
    Display aspect ratio : 16:9
    Frame rate : 23.976 fps
    Color space : YUV
    Chroma subsampling : 4:2:0
    Bit depth : 8 bits
    Scan type : Progressive
    Bits/(Pixel*Frame) : 0.156
    Stream size : 1.21 GiB (83%)
    Writing library : x264 core 130 r2273 b3065e6
    Encoding settings : cabac=1 / ref=10 / deblock=1:-3:-3 / analyse=0x3:0x133 / me=umh / subme=11 / psy=1 / psy_rd=1.00:0.20 / mixed_ref=1 / me_range=48 / chroma_me=1 / trellis=2 / 8x8dct=1 / cqm=0 / deadzone=21,11 / fast_pskip=0 / chroma_qp_offset=-3 / threads=18 / lookahead_threads=1 / sliced_threads=0 / nr=0 / decimate=0 / interlaced=0 / bluray_compat=0 / constrained_intra=0 / bframes=8 / b_pyramid=2 / b_adapt=2 / b_bias=0 / direct=3 / weightb=1 / open_gop=0 / weightp=2 / keyint=250 / keyint_min=23 / scenecut=40 / intra_refresh=0 / rc=2pass / mbtree=0 / bitrate=2207 / ratetol=1.0 / qcomp=0.60 / qpmin=0 / qpmax=69 / qpstep=4 / cplxblur=20.0 / qblur=0.5 / ip_ratio=1.40 / pb_ratio=1.30 / aq=1:1.00
    Language : English
    Default : Yes
    Forced : No

    Audio
    ID : 2
    Format : AC-3
    Format/Info : Audio Coding 3
    Mode extension : CM (complete main)
    Format settings, Endianness : Big
    Codec ID : A_AC3
    Duration : 1h 20mn
    Bit rate mode : Constant
    Bit rate : 384 Kbps
    Channel(s) : 6 channels
    Channel positions : Front: L C R, Side: L R, LFE
    Sampling rate : 48.0 KHz
    Bit depth : 16 bits
    Compression mode : Lossy
    Stream size : 221 MiB (15%)
    Language : Russian
    Default : Yes
    Forced : No

    Text
    ID : 3
    Format : UTF-8
    Codec ID : S_TEXT/UTF8
    Codec ID/Info : UTF-8 Plain Text
    Language : English
    Default : No
    Forced : No

    Menu
    00:00:00.000 : en:Chapter 01
    00:09:34.000 : en:Chapter 02
    00:18:19.000 : en:Chapter 03
    00:26:44.000 : en:Chapter 04
    00:38:15.000 : en:Chapter 05
    00:46:48.000 : en:Chapter 06
    00:58:08.000 : en:Chapter 07
    01:06:42.000 : en:Chapter 08
    01:15:25.000 : en:Chapter 09
    Скриншоты для ознакомления


    Рип: 03nazar03
    Размер скачиваемого торрента: 1.45 GB (1561483788 Bytes)

    Путешественник скорби / The Grief Tourist (2012) WEB-DLRip-AVC | L2 скачать через торрент бесплатно
    загрузка...
    Рейтинг →
     (голосов: 1, оценка 4/5, голосовать можно 1 раз )

    Другие торренты по теме:

  • Путешественник скорби / The Grief Tourist (2012) WEB-DL 720p | L2 торрент скачать бесплатно
  • Путешественник скорби / The Grief Tourist (2012) WEB-DLRip | L2 торрент скачать бесплатно
  • Путешественник скорби / The Grief Tourist (2012) HDRip | L2 торрент скачать бесплатно


    • Комментарии (0):

      Информация

      Информация

        Посетители, находящиеся в группе Гости, не могут оставлять комментарии в данной новости.

        ↓ Меню



        ↓ Опрос

        А Вы добавили сайт в закладки?
        Да
        Не


        Top 10 за неделю (Фильмы)