.
Авторизация | Регистрация




Лютый (2013) WEB-DLRip скачать через торрент бесплатно

Опубликовал: Админ | Дата: 27-02-2015, 11:09 | Просмотров: 398



Детально о кино
Русское название: Лютый
Создали в: 2013
Категория жанра: Боевик, криминальный фильм
Главный режиссер: Станислав Мареев
Актеры: Владимир Епифанцев, Ирина Апексимова, Елена Панова, Михаил Трухин, Дарья Мельникова, Павел Цицилин, Елизавета Зарубина, Олег Фомин, Фёдор Лавров, Михаил Богдасаров, Никита Митасов

Сюжет фильма:
Главного героя, полицейского Максима Лютова, долго считали убитым. Когда он возвращается к работе в полиции и становится новым начальником убойного отдела, у многих коллег это вызывает шок. Старые знакомые смотрят на него как на ожившего покойника. Новые сотрудники отделения с трудом воспринимают его своеобразные манеры и внешний вид. Лютов груб, странно выглядит, странно шутит, и методы работы у него странные.



Снималось в: Россия
Киностудия: DT Production
Время просмотра: 8 х ~00:45:27
Перевод текста: не требуется

Файл
Кодек для видео: XviD
Качество фильма: WEB-DLRip (Исх. WEB-DL 720p)
Информация о видео: 720x400 (1.80:1), 25 fps, XviD build 50 ~1500 kbps avg, 0.21 bit/pixel
Информация о звуке: 44.100 kHz, AC3 Dolby Digital, 2/0 (L,R) ch, ~192.00 kbps avg
Субтитры: нет

Семпл

MediaInfo

Общее
Полное имя : K:Лютый. 2013. WEB-DLRipЛютый. 2013. WEB-DLRip. 6 серия.avi
Формат : AVI
Формат/Информация : Audio Video Interleave
Размер файла : 553 Мбайт
Продолжительность : 45 м.
Общий поток : 1702 Кбит/сек
Программа кодирования : VirtualDubMod 1.5.10.3 | www.virtualdub-fr.org || (build 2550/release)
Библиотека кодирования : VirtualDubMod build 2550/release

Видео
Идентификатор : 0
Формат : MPEG-4 Visual
Профиль формата : Advanced Simple@L5
Параметр BVOP формата : 2
Параметр QPel формата : Нет
Параметр GMC формата : Без точки перехода
Параметр матрицы формата : Выборочная
Идентификатор кодека : XVID
Идентификатор кодека/Подсказка : XviD
Продолжительность : 45 м.
Битрейт : 1500 Кбит/сек
Ширина : 720 пикс.
Высота : 400 пикс.
Соотношение сторон : 16:9
Частота кадров : 25,000 кадр/сек
Цветовое пространство : YUV
Подвыборка цветности : 4:2:0
Битовая глубина : 8 бит
Тип развёртки : Прогрессивная
Метод сжатия : С потерями
Бит/(Пиксели*Кадры) : 0.208
Размер потока : 488 Мбайт (88%)
Библиотека кодирования : XviD 1.2.1 (UTC 2008-12-04)

Аудио
Идентификатор : 1
Формат : AC-3
Формат/Информация : Audio Coding 3
Расширение режима : CM (complete main)
Идентификатор кодека : 2000
Продолжительность : 45 м.
Вид битрейта : Постоянный
Битрейт : 192 Кбит/сек
Каналы : 2 канала
Расположение каналов : Front: L R
Частота : 44,1 КГц
Битовая глубина : 16 бит
Метод сжатия : С потерями
Задержка видео : 34 мс.
Размер потока : 62,4 Мбайт (11%)
Выравнивание : Разделение по промежуткам
Продолжительность промежутка : 40 мс. (1,00 видеокадр)
Время предзагрузки промежутка : 500 ms

Скриншоты для ознакомления

Залил: Losk
Размер скачиваемого торрента: 4.61 GB (4953126912 Bytes)

Лютый (2013) WEB-DLRip скачать через торрент бесплатно
загрузка...
Рейтинг →
 (голосов: 1, оценка 5/5, голосовать можно 1 раз )

Другие торренты по теме:

  • Лютый (2013) WEB-DL 1080p от Nikolspup скачать через торрент бесплатно
  • Лютый (2013) WEB-DL (720p) от Generalfilm скачать через торрент бесплатно
  • Лютый (2013) SATRip от GeneralFilm скачать через торрент бесплатно
  • Лютый (2013) WEBRip-AVC от GeneralFilm торрент скачать бесплатно


    • Комментарии (0):

      Информация

      Информация

        Посетители, находящиеся в группе Гости, не могут оставлять комментарии в данной новости.

        ↓ Меню



        ↓ Опрос

        А Вы добавили сайт в закладки?
        Да
        Не


        Top 10 за неделю (Фильмы)