.
Авторизация | Регистрация
Хочешь лучшие торренты? Добавь свой email!
Добавить
» » Полицейская академия 3: Переподготовка / Police Academy 3: Back in Training (1986) BDRip 720p от MediaClub | D, P, A торрент скачать бесплатно




    Полицейская академия 3: Переподготовка / Police Academy 3: Back in Training (1986) BDRip 720p от MediaClub | D, P, A торрент скачать бесплатно

    Опубликовал: Админ | Дата: 27-02-2015, 11:09 | Просмотров: 353



    Детально о кино
    Русское название: Полицейская академия 3: Переподготовка
    Русское название в мировом прокате: Police Academy 3: Back in Training
    Создали в: 1986
    Категория жанра: Комедия, криминал
    Главный режиссер: Джерри Пэрис
    Актеры: Стив Гуттенберг, Бубба Смит, Дэвид Граф, Майкл Уинслоу, Мэрион Рэмси, Лесли Истербрук, Арт Метрано, Тим Казурински, Боб Голдтуэйт, Джордж Гейнс, Шон Уэзерли, Скотт Томсон, Брант фон Хоффман, Брюс Малер, Эд Нельсон, Дебрали Скотт, Лэнс Кинси, Брайан Точи, Эндрю Пэрис, Джордж Р. Робертсон, Джорджина Спелвин, Дэвид Хубанд, Дэвид Джеймс Эллиотт, Артур Батанидес, Джек Крили, Рита Такетт, Чес Лоутер, Лин Джексон, Мэри Энн Коулз, Сэм Стоун, Грант Коуэн, Брюс Пири, Даг Леннокс, Тедди Эбнер, Сьюзэн Дерек, Марсия Уоткинс, Пэм Хайатт, Фран Гебхард, Лес Ниренберг, Глория Саммерс, Фред Ливингстоун

    Сюжет фильма:
    Правительство заявило, что только одна из двух полицейских школ может продолжать свою работу. Начинается жестокое состязание на выживание - ни одна из академий не желает закрываться, в дело идут все средства. Махони, Хайтауэр, Тэклберри, Джонс, Хукс и Кэллагэн под командованием несгибаемого коменданта Лассарда, мобилизуют для спасения своей Альма Матер новую команду безнадежных рекрутов.



    Снималось в: США, Police Academy Productions, Warner Bros. Pictures
    Время просмотра: 01:23:43
    Перевод текста: Дублированный, профессиональный двухголосый, авторский

    Файл
    Кодек для видео: x264
    Качество фильма: BDRip 720p
    Информация о видео: MPEG-4 AVC, 7300 Кбит/с, 1280x720, 23.976 кадр/с
    Информация о звуке #1: Русский (AC3, 1 ch, 192 Кбит/с) / Дублированный
    Информация о звуке #2: Русский (AC3, 1 ch, 192 Кбит/с) / Профессиональный двухголосый
    Информация о звуке #3: Русский (AC3, 1 ch, 192 Кбит/с) / Профессиональный двухголосый (НТВ)
    Информация о звуке #4: Русский (AC3, 1 ch, 192 Кбит/с) / Авторский одноголосый (Володарский)
    Информация о звуке #5: Русский (AC3, 1 ch, 192 Кбит/с) / Авторский одноголосый (Гаврилов)
    Информация о звуке #6: Русский (AC3, 1 ch, 192 Кбит/с) / Авторский одноголосый ( Иванов)
    Информация о звуке #7: Английский ( DTS, 1 ch, 755 Кбит/с)
    Субтитры: Английские

    Семпл

    MI
    x264 info: frame I:1039 Avg QP:15.93 size:123492
    x264 info: frame P:27733 Avg QP:18.50 size: 62326
    x264 info: frame B:91677 Avg QP:20.38 size: 29730

    =============================================

    Format : Matroska
    Format version : Version 4 / Version 2
    File size : 5.39 GiB
    Duration : 1h 23mn
    Overall bit rate : 9 220 Kbps
    Movie name : -=MediaClub - Odessit=-
    Encoded date : UTC 2013-12-09 21:39:12
    Writing application : mkvmerge v6.2.0 (;Promised Land;) built on Apr 28 2013 12:22:01
    Writing library : libebml v1.3.0 libmatroska v1.4.0

    Video
    ID : 1
    Format : AVC
    Format/Info : Advanced Video Codec
    Format profile : High@L4.1
    Format settings, CABAC : Yes
    Format settings, ReFrames : 10 frames
    Codec ID : V_MPEG4/ISO/AVC
    Duration : 1h 23mn
    Bit rate : 7 300 Kbps
    Width : 1 280 pixels
    Height : 720 pixels
    Display aspect ratio : 16:9
    Frame rate : 23.976 fps
    Color space : YUV
    Chroma subsampling : 4:2:0
    Bit depth : 8 bits
    Scan type : Progressive
    Bits/(Pixel*Frame) : 0.330
    Stream size : 4.17 GiB (77%)
    Writing library : x264 core 130 r2273 b3065e6
    Encoding settings : cabac=1 / ref=10 / deblock=1:-3:-3 / analyse=0x3:0x133 / me=umh / subme=11 / psy=1 / psy_rd=1.00:0.20 / mixed_ref=1 / me_range=48 / chroma_me=1 / trellis=2 / 8x8dct=1 / cqm=0 / deadzone=21,11 / fast_pskip=0 / chroma_qp_offset=-3 / threads=6 / lookahead_threads=1 / sliced_threads=0 / nr=0 / decimate=0 / interlaced=0 / bluray_compat=0 / constrained_intra=0 / bframes=8 / b_pyramid=2 / b_adapt=2 / b_bias=0 / direct=3 / weightb=1 / open_gop=0 / weightp=2 / keyint=240 / keyint_min=23 / scenecut=40 / intra_refresh=0 / rc=2pass / mbtree=0 / bitrate=7300 / ratetol=1.0 / qcomp=0.60 / qpmin=0 / qpmax=69 / qpstep=4 / cplxblur=20.0 / qblur=0.5 / ip_ratio=1.40 / pb_ratio=1.30 / aq=1:1.00
    Language : English

    Audio #1
    ID : 2
    Format : AC-3
    Format/Info : Audio Coding 3
    Mode extension : CM (complete main)
    Codec ID : A_AC3
    Duration : 1h 23mn
    Bit rate mode : Constant
    Bit rate : 192 Kbps
    Channel(s) : 1 channel
    Channel positions : Front: C
    Sampling rate : 48.0 KHz
    Bit depth : 16 bits
    Compression mode : Lossy
    Stream size : 115 MiB (2%)
    Title : Дублированный
    Language : Russian

    Audio #2
    ID : 3
    Format : AC-3
    Format/Info : Audio Coding 3
    Mode extension : CM (complete main)
    Codec ID : A_AC3
    Duration : 1h 23mn
    Bit rate mode : Constant
    Bit rate : 192 Kbps
    Channel(s) : 1 channel
    Channel positions : Front: C
    Sampling rate : 48.0 KHz
    Bit depth : 16 bits
    Compression mode : Lossy
    Stream size : 115 MiB (2%)
    Title : Профессиональный двухголосый
    Language : Russian

    Audio #3
    ID : 4
    Format : AC-3
    Format/Info : Audio Coding 3
    Mode extension : CM (complete main)
    Codec ID : A_AC3
    Duration : 1h 23mn
    Bit rate mode : Constant
    Bit rate : 192 Kbps
    Channel(s) : 1 channel
    Channel positions : Front: C
    Sampling rate : 48.0 KHz
    Bit depth : 16 bits
    Compression mode : Lossy
    Stream size : 115 MiB (2%)
    Title : Профессиональный двухголосый (НТВ)
    Language : Russian

    Audio #4
    ID : 5
    Format : AC-3
    Format/Info : Audio Coding 3
    Mode extension : CM (complete main)
    Codec ID : A_AC3
    Duration : 1h 23mn
    Bit rate mode : Constant
    Bit rate : 192 Kbps
    Channel(s) : 1 channel
    Channel positions : Front: C
    Sampling rate : 48.0 KHz
    Bit depth : 16 bits
    Compression mode : Lossy
    Stream size : 115 MiB (2%)
    Title : Авторский одноголосый (Володарский)
    Language : Russian

    Audio #5
    ID : 6
    Format : AC-3
    Format/Info : Audio Coding 3
    Mode extension : CM (complete main)
    Codec ID : A_AC3
    Duration : 1h 23mn
    Bit rate mode : Constant
    Bit rate : 192 Kbps
    Channel(s) : 1 channel
    Channel positions : Front: C
    Sampling rate : 48.0 KHz
    Bit depth : 16 bits
    Compression mode : Lossy
    Stream size : 115 MiB (2%)
    Title : Авторский одноголосый (Гаврилов)
    Language : Russian

    Audio #6
    ID : 7
    Format : AC-3
    Format/Info : Audio Coding 3
    Mode extension : CM (complete main)
    Codec ID : A_AC3
    Duration : 1h 23mn
    Bit rate mode : Constant
    Bit rate : 192 Kbps
    Channel(s) : 1 channel
    Channel positions : Front: C
    Sampling rate : 48.0 KHz
    Bit depth : 16 bits
    Compression mode : Lossy
    Stream size : 115 MiB (2%)
    Title : Авторский одноголосый ( Иванов)
    Language : Russian

    Audio #7
    ID : 8
    Format : DTS
    Format/Info : Digital Theater Systems
    Codec ID : A_DTS
    Duration : 1h 23mn
    Bit rate mode : Constant
    Bit rate : 755 Kbps
    Channel(s) : 1 channel
    Channel positions : Front: C
    Sampling rate : 48.0 KHz
    Bit depth : 24 bits
    Compression mode : Lossy
    Stream size : 452 MiB (8%)
    Language : English

    Text
    ID : 9
    Format : UTF-8
    Codec ID : S_TEXT/UTF8
    Codec ID/Info : UTF-8 Plain Text
    Language : English

    Menu
    00:00:00.000 : en:Prologue
    00:08:03.524 : en:Tackleberry on the Job (Credits)
    00:11:20.179 : en:Freestyle Parking
    00:14:20.401 : en:No Respect for Leslie
    00:20:58.340 : en:Mahoney;s Choice
    00:24:23.170 : en:Hood Ornament
    00:27:21.514 : en:Undesirables Academy
    00:31:02.443 : en:Addressing the Class
    00:34:17.555 : en:Clothes/Hair on/Off
    00:36:36.611 : en:Dorm Alliances
    00:38:13.624 : en:Exhausting Day
    00:42:37.763 : en:All Trapped
    00:45:34.773 : en:Mouthful of Laughs
    00:47:51.743 : en:Target Practice; to the Mat
    00:51:00.766 : en:Mahoney;s Manuevers
    00:55:35.957 : en:Party! Times Two
    00:57:12.804 : en:All Fired Up
    01:02:02.343 : en:Vocal Technique
    01:06:12.051 : en:Stimulating Lassard
    01:11:43.507 : en:Harris; Rear Assault
    01:14:02.855 : en:Hightower at the Wheel
    01:20:05.008 : en:Wrong Choice of Words

    Скриншоты для ознакомления


    Релиз подготовил: |
    Размер скачиваемого торрента: 5.39 GB (5790869575 Bytes)

    Полицейская академия 3: Переподготовка / Police Academy 3: Back in Training (1986) BDRip 720p от MediaClub | D, P, A торрент скачать бесплатно
    загрузка...
    Рейтинг →
     (голосов: 1, оценка 5/5, голосовать можно 1 раз )

    Другие торренты по теме:

  • Полицейская академия 2: Их первое задание / Police Academy 2: Their First Assignment (1985) HDRip от Scarabey | D
  • Полицейская академия 3: Переподготовка / Police Academy 3: Back in Training (1986) BDRip 1080р | D, P, A от Freeisland
  • Полицейская академия 4: Граждане в дозоре / Police Academy 4: Citizens on Patrol (1987) BDRip 1080р | D, P, A от Freeisland скачать через торрент бесплатно
  • Полицейская академия 5: Место назначения – Майами Бич / Police Academy 5: Assignment: Miami Beach (1988) BDRip 1080р | D, P, A от Freeisland скачать через торрент бесплатно
  • Полицейская академия 6: Город в осаде / Police Academy 6: City Under Siege (1989) BDRip 1080р | D, P, A от Freeisland
  • Полицейская академия 5: Место назначения - Майами Бич / Police Academy 5: Assignment: Miami Beach (1988) BDRip 720p от MediaClub | D, P, A
  • Полицейская академия 4: Граждане в дозоре / Police Academy 4: Citizens on Patrol (1987) BDRip 720p от MediaClub | D, P, A скачать через торрент бесплатно
  • Полицейская академия 7: Миссия в Москве / Police Academy 7: Mission to Moscow (1994) BDRip 1080р | P, A от Freeisland


    • Комментарии (0):

      Информация

      Информация

        Посетители, находящиеся в группе Гости, не могут оставлять комментарии в данной новости.

        ↓ Меню



        ↓ Опрос

        А Вы добавили сайт в закладки?
        Да
        Не


        Top 10 за месяц (Фильмы)