.
Авторизация | Регистрация
Хочешь лучшие торренты? Добавь свой email!
Добавить




Куки / Cookie (2013) WEB-DLRip торрент скачать бесплатно

Опубликовал: Админ | Дата: 27-02-2015, 11:09 | Просмотров: 256



Детально о кино
Русское название: Куки
Русское название в мировом прокате: Cookie
Создали в: 2013
Категория жанра: драма, комедия
Главный режиссер: Леа Фазер
Актеры: Элис Тальони, Вирджиния Эфира, Мехди Неббу, Скали Делпейрат, Мерем Серба, Макс Динг, Филипп Лефевр, Лолита Оффенштейн, Лео Легран, Юбай Чжан

Сюжет фильма:
Одинокая Аделина берет под опеку маленького сына своей исчезнувшей домработницы-китаянки.



Снималось в: Франция
Киностудия: Elia Films, TF1 Droits Audiovisuels, France 2 Cinema
Время просмотра: 01:38:25
Перевод текста: Профессиональное (многоголосое) НТВ

Файл
Кодек для видео: XviD
Качество фильма: WEB-DLRip (Исх. WEB-DL 720p)
Информация о видео: 656x352 (1.86:1), 24.000 fps, XviD build 50 ~857 kbps avg, 0.15 bit/pixel
Информация о звуке: 48 kHz, MPEG Layer 3, 2 ch, ~192.00 kbps avg
Субтитры: нет

Семпл

MediaInfo

Общее
Полное имя : S:ФильмыКуки. 2013. WEB-DLRip.avi
Формат : AVI
Формат/Информация : Audio Video Interleave
Размер файла : 745 Мбайт
Продолжительность : 1 ч. 38 м.
Общий поток : 1058 Кбит/сек
Программа кодирования : VirtualDubMod 1.5.10.3 | www.virtualdub-fr.org || (build 2550/release)
Библиотека кодирования : VirtualDubMod build 2550/release

Видео
Идентификатор : 0
Формат : MPEG-4 Visual
Профиль формата : Advanced Simple@L5
Параметр BVOP формата : 2
Параметр QPel формата : Нет
Параметр GMC формата : Без точки перехода
Параметр матрицы формата : Выборочная
Идентификатор кодека : XVID
Идентификатор кодека/Подсказка : XviD
Продолжительность : 1 ч. 38 м.
Битрейт : 857 Кбит/сек
Ширина : 656 пикс.
Высота : 352 пикс.
Соотношение сторон : 1,864
Частота кадров : 24,000 кадр/сек
Цветовое пространство : YUV
Подвыборка цветности : 4:2:0
Битовая глубина : 8 бит
Тип развёртки : Прогрессивная
Метод сжатия : С потерями
Бит/(Пиксели*Кадры) : 0.155
Размер потока : 603 Мбайт (81%)
Библиотека кодирования : XviD 1.2.1 (UTC 2008-12-04)

Аудио
Идентификатор : 1
Формат : MPEG Audio
Версия формата : Version 1
Профиль формата : Layer 3
Режим : Joint stereo
Идентификатор кодека : 55
Идентификатор кодека/Подсказка : MP3
Продолжительность : 1 ч. 38 м.
Вид битрейта : Постоянный
Битрейт : 192 Кбит/сек
Каналы : 2 канала
Частота : 48,0 КГц
Метод сжатия : С потерями
Размер потока : 135 Мбайт (18%)
Выравнивание : Соединение по промежуткам
Продолжительность промежутка : 42 мс. (1,00 видеокадр)
Время предзагрузки промежутка : 504 ms

Скриншоты для ознакомления

Залил: Losk
Размер скачиваемого торрента: 744.74 MB (780912640 Bytes)

Куки / Cookie (2013) WEB-DLRip торрент скачать бесплатно
загрузка...
Рейтинг →
 (голосов: 1, оценка 4/5, голосовать можно 1 раз )

Другие торренты по теме:

  • Куки / Cookie (2013) WEBDL 720p скачать через торрент бесплатно
  • Куки / Cookie (2013) WEB-DLRip от New-Team | P скачать через торрент бесплатно
  • Мэри-Куки и тарантул-убийца / Mari-Cookie and the Killer Tarantula (1998) VHSRip | L1
  • Мэри-Куки и тарантул-убийца / Mari-Cookie and the Killer Tarantula / 1998 / ЛО / VHSRip


    • Комментарии (0):

      Информация

      Информация

        Посетители, находящиеся в группе Гости, не могут оставлять комментарии в данной новости.

        ↓ Меню



        ↓ Опрос

        А Вы добавили сайт в закладки?
        Да
        Не


        Top 10 за месяц (Фильмы)