.
Авторизация | Регистрация
Хочешь лучшие торренты? Добавь свой email!
Добавить
» » Полицейская академия 5: Место назначения - Майами Бич / Police Academy 5: Assignment: Miami Beach (1988) BDRip 720p от MediaClub | D, P, A торрент скачать бесплатно




    Полицейская академия 5: Место назначения - Майами Бич / Police Academy 5: Assignment: Miami Beach (1988) BDRip 720p от MediaClub | D, P, A торрент скачать бесплатно

    Опубликовал: Админ | Дата: 27-02-2015, 11:09 | Просмотров: 344



    Детально о кино
    Русское название: Полицейская академия 5: Место назначения - Майами Бич
    Русское название в мировом прокате: Police Academy 5: Assignment: Miami Beach
    Создали в: 1988
    Категория жанра: Комедия, криминал
    Главный режиссер: Алан Майерсон
    Актеры: Бубба Смит, Дэвид Граф, Майкл Уинслоу, Лесли Истербрук, Мэрион Рэмси, Джанет Джонс, Лэнс Кинси, Мэтт МакКой, Дж. У. Бейли, Джордж Гейнс

    Сюжет фильма:
    Солнце, веселье и красивые девушки. Где всему этому быть, как не в Майами Бич? На этом пятом празднике смеха наши герои летят в Майами на чествование любимого коменданта Лассарда. Но у преступников не бывает отпусков, когда отдыхают наши любимые полицейские. Лассард похищен. И даже соблазнительные пляжные вечеринки не смогут отвлечь наших неистовых бойцов от отчаянной попытки спасения заложника.



    Снималось в: США / Warner Bros. Pictures
    Время просмотра: 01:29:50
    Перевод текста: Дублированный, профессиональный многоголосый, профессиональный двухголосый, авторский

    Файл
    Кодек для видео: x264
    Качество фильма: BDRip 720p
    Информация о видео: MPEG-4 AVC, 7200 Кбит/с, 1280x720, 23.976 кадр/с
    Информация о звуке #1: Русский (AC3, 1 ch, 192 Кбит/с) / Дублированный
    Информация о звуке #2: Русский (AC3, 1 ch, 192 Кбит/с) / Профессиональный двухголосый (НТВ)
    Информация о звуке #3: Русский (AC3, 1 ch, 192 Кбит/с) / Профессиональный многоголосый
    Информация о звуке #4: Русский (AC3, 1 ch, 192 Кбит/с) / Профессиональный многоголосый (Россия)
    Информация о звуке #5: Русский (AC3, 1 ch, 192 Кбит/с) / Авторский одноголосый (Михалев)
    Информация о звуке #6: Английский ( DTS, 1 ch, 755 Кбит/с)
    Субтитры: Английские

    Семпл

    MI
    x264 info: frame I:911 Avg QP:17.13 size:133965
    x264 info: frame P:29923 Avg QP:19.68 size: 64800
    x264 info: frame B:98414 Avg QP:21.23 size: 28325

    Format : Matroska
    Format version : Version 4 / Version 2
    File size : 5.60 GiB
    Duration : 1h 29mn
    Overall bit rate : 8 926 Kbps
    Movie name : -=MediaClub - Odessit=-
    Encoded date : UTC 2013-12-09 06:42:42
    Writing application : mkvmerge v6.2.0 (;Promised Land;) built on Apr 28 2013 12:22:01
    Writing library : libebml v1.3.0 libmatroska v1.4.0

    Video
    ID : 1
    Format : AVC
    Format/Info : Advanced Video Codec
    Format profile : High@L4.1
    Format settings, CABAC : Yes
    Format settings, ReFrames : 10 frames
    Codec ID : V_MPEG4/ISO/AVC
    Duration : 1h 29mn
    Bit rate : 7 200 Kbps
    Width : 1 280 pixels
    Height : 720 pixels
    Display aspect ratio : 16:9
    Frame rate : 23.976 fps
    Color space : YUV
    Chroma subsampling : 4:2:0
    Bit depth : 8 bits
    Scan type : Progressive
    Bits/(Pixel*Frame) : 0.326
    Stream size : 4.42 GiB (79%)
    Writing library : x264 core 130 r2273 b3065e6
    Encoding settings : cabac=1 / ref=10 / deblock=1:-3:-3 / analyse=0x3:0x133 / me=umh / subme=11 / psy=1 / psy_rd=1.00:0.20 / mixed_ref=1 / me_range=48 / chroma_me=1 / trellis=2 / 8x8dct=1 / cqm=0 / deadzone=21,11 / fast_pskip=0 / chroma_qp_offset=-3 / threads=6 / lookahead_threads=1 / sliced_threads=0 / nr=0 / decimate=0 / interlaced=0 / bluray_compat=0 / constrained_intra=0 / bframes=8 / b_pyramid=2 / b_adapt=2 / b_bias=0 / direct=3 / weightb=1 / open_gop=0 / weightp=2 / keyint=240 / keyint_min=23 / scenecut=40 / intra_refresh=0 / rc=2pass / mbtree=0 / bitrate=7200 / ratetol=1.0 / qcomp=0.60 / qpmin=0 / qpmax=69 / qpstep=4 / cplxblur=20.0 / qblur=0.5 / ip_ratio=1.40 / pb_ratio=1.30 / aq=1:1.00
    Language : English

    Audio #1
    ID : 2
    Format : AC-3
    Format/Info : Audio Coding 3
    Mode extension : CM (complete main)
    Codec ID : A_AC3
    Duration : 1h 29mn
    Bit rate mode : Constant
    Bit rate : 192 Kbps
    Channel(s) : 1 channel
    Channel positions : Front: C
    Sampling rate : 48.0 KHz
    Bit depth : 16 bits
    Compression mode : Lossy
    Stream size : 123 MiB (2%)
    Title : дублированный
    Language : Russian

    Audio #2
    ID : 3
    Format : AC-3
    Format/Info : Audio Coding 3
    Mode extension : CM (complete main)
    Codec ID : A_AC3
    Duration : 1h 29mn
    Bit rate mode : Constant
    Bit rate : 192 Kbps
    Channel(s) : 1 channel
    Channel positions : Front: C
    Sampling rate : 48.0 KHz
    Bit depth : 16 bits
    Compression mode : Lossy
    Stream size : 123 MiB (2%)
    Title : закадровый двухголосый, НТВ
    Language : Russian

    Audio #3
    ID : 4
    Format : AC-3
    Format/Info : Audio Coding 3
    Mode extension : CM (complete main)
    Codec ID : A_AC3
    Duration : 1h 29mn
    Bit rate mode : Constant
    Bit rate : 192 Kbps
    Channel(s) : 1 channel
    Channel positions : Front: C
    Sampling rate : 48.0 KHz
    Bit depth : 16 bits
    Compression mode : Lossy
    Stream size : 123 MiB (2%)
    Title : закадровый (многоголосый)
    Language : Russian

    Audio #4
    ID : 5
    Format : AC-3
    Format/Info : Audio Coding 3
    Mode extension : CM (complete main)
    Codec ID : A_AC3
    Duration : 1h 29mn
    Bit rate mode : Constant
    Bit rate : 192 Kbps
    Channel(s) : 1 channel
    Channel positions : Front: C
    Sampling rate : 48.0 KHz
    Bit depth : 16 bits
    Compression mode : Lossy
    Stream size : 123 MiB (2%)
    Title : закадровый (многоголосый, Россия)
    Language : Russian

    Audio #5
    ID : 6
    Format : AC-3
    Format/Info : Audio Coding 3
    Mode extension : CM (complete main)
    Codec ID : A_AC3
    Duration : 1h 29mn
    Bit rate mode : Constant
    Bit rate : 192 Kbps
    Channel(s) : 1 channel
    Channel positions : Front: C
    Sampling rate : 48.0 KHz
    Bit depth : 16 bits
    Compression mode : Lossy
    Stream size : 123 MiB (2%)
    Title : закадровый (авторский одноголосый, Михалев)
    Language : Russian

    Audio #6
    ID : 7
    Format : DTS
    Format/Info : Digital Theater Systems
    Codec ID : A_DTS
    Duration : 1h 29mn
    Bit rate mode : Constant
    Bit rate : 755 Kbps
    Channel(s) : 1 channel
    Channel positions : Front: C
    Sampling rate : 48.0 KHz
    Bit depth : 24 bits
    Compression mode : Lossy
    Stream size : 485 MiB (8%)
    Language : English

    Text
    ID : 8
    Format : UTF-8
    Codec ID : S_TEXT/UTF8
    Codec ID/Info : UTF-8 Plain Text
    Language : English

    Menu
    00:00:00.000 : en:Break-In (Credits)
    00:05:50.975 : en:Retirement Award
    00:10:08.899 : en:Going Out in Style
    00:15:20.794 : en:Clumsy Thieves
    00:17:34.261 : en:Luggage Balls
    00:21:20.946 : en:Plane Hijinxing
    00:27:09.169 : en:Dropping the Bag
    00:32:03.379 : en:Fun in the Sun
    00:36:24.098 : en:Water Sports
    00:41:45.419 : en:Limbo Losers
    00:45:23.137 : en:Cops and Robbers
    00:47:56.456 : en:Candid Camera
    00:50:14.511 : en:Convention Wisdom
    00:56:23.338 : en:Hot Shot
    00:57:39.456 : en:Kidnapping Crew
    01:04:02.713 : en:A Brilliant Plan
    01:10:59.254 : en:Hostage Bonding
    01:15:28.273 : en:Swamp Rescue
    01:20:07.260 : en:Joy Ride
    01:21:57.662 : en:Police Procedure
    01:24:17.177 : en:Medals of Honor
    01:27:24.572 : en:End Credits

    Скриншоты для ознакомления


    Релиз подготовил: |
    Размер скачиваемого торрента: 5.60 GB (6015843257 Bytes)

    Полицейская академия 5: Место назначения - Майами Бич / Police Academy 5: Assignment: Miami Beach (1988) BDRip 720p от MediaClub | D, P, A торрент скачать бесплатно
    загрузка...
    Рейтинг →
     (голосов: 1, оценка 3/5, голосовать можно 1 раз )

    Другие торренты по теме:

  • Полицейская академия 2: Их первое задание / Police Academy 2: Their First Assignment (1985) HDRip от Scarabey | D
  • Полицейская академия 3: Переподготовка / Police Academy 3: Back in Training (1986) BDRip 1080р | D, P, A от Freeisland
  • Полицейская академия 4: Граждане в дозоре / Police Academy 4: Citizens on Patrol (1987) BDRip 1080р | D, P, A от Freeisland скачать через торрент бесплатно
  • Полицейская академия 5: Место назначения – Майами Бич / Police Academy 5: Assignment: Miami Beach (1988) BDRip 1080р | D, P, A от Freeisland скачать через торрент бесплатно
  • Полицейская академия 3: Переподготовка / Police Academy 3: Back in Training (1986) BDRip 720p от MediaClub | D, P, A
  • Полицейская академия 6: Город в осаде / Police Academy 6: City Under Siege (1989) BDRip 1080р | D, P, A от Freeisland
  • Полицейская академия 4: Граждане в дозоре / Police Academy 4: Citizens on Patrol (1987) BDRip 720p от MediaClub | D, P, A скачать через торрент бесплатно
  • Полицейская академия 7: Миссия в Москве / Police Academy 7: Mission to Moscow (1994) BDRip 1080р | P, A от Freeisland


    • Комментарии (0):

      Информация

      Информация

        Посетители, находящиеся в группе Гости, не могут оставлять комментарии в данной новости.

        ↓ Меню



        ↓ Опрос

        А Вы добавили сайт в закладки?
        Да
        Не


        Top 10 за месяц (Фильмы)