.
Авторизация | Регистрация
Хочешь лучшие торренты? Добавь свой email!
Добавить
» » Лютый (2013) WEBRip-AVC от GeneralFilm торрент скачать бесплатно




    Лютый (2013) WEBRip-AVC от GeneralFilm торрент скачать бесплатно

    Опубликовал: Админ | Дата: 27-02-2015, 11:09 | Просмотров: 905



    Детально о кино
    Русское название в мировом прокате: Лютый
    Создали в: 2013
    Снималось в: Россия
    Киностудия: Кинокомпания DT Production
    Категория жанра: Боевик, криминальный фильм
    Главный режиссер: Станислав Мареев
    Актеры: Владимир Епифанцев, Ирина Апексимова, Елена Панова, Михаил Трухин, Дарья Мельникова, Павел Цицилин, Елизавета Зарубина, Олег Фомин, Фёдор Лавров, Михаил Богдасаров, Никита Митасов.

    Сюжет фильма: Главного героя, полицейского Максима Лютова, долго считали убитым. Когда он возвращается к работе в полиции и становится новым начальником убойного отдела, у многих коллег это вызывает шок. Старые знакомые смотрят на него как на ожившего покойника. Новые сотрудники отделения с трудом воспринимают его своеобразные манеры и внешний вид. Лютов груб, странно выглядит, странно шутит, и методы работы у него странные.

    Файл
    Качество фильма: WEBRip-AVC
    Информация о видео данные: AVI (DivX), 1024x576, 2000 kbps, 23.976 fps
    Информация о звуке данные: MPEG Layer 3, 2 ch, 128 kbps, 44.1 KHz
    Время просмотра: 8 x ~ 00:49:00
    Язык: Русский

    MediaInfo

    General
    Complete name : Лютый 01 (2013) WEBRip-AVC от GeneralFilm.avi
    Format : AVI
    Format/Info : Audio Video Interleave
    File size : 775 MiB
    Duration : 50mn 29s
    Overall bit rate : 2 145 Kbps

    Video
    ID : 0
    Format : MPEG-4 Visual
    Format settings, BVOP : Yes
    Format settings, QPel : No
    Format settings, GMC : No warppoints
    Format settings, Matrix : Default (H.263)
    Codec ID : DX50
    Codec ID/Hint : DivX 5
    Duration : 50mn 29s
    Bit rate : 2 001 Kbps
    Width : 1 024 pixels
    Height : 576 pixels
    Display aspect ratio : 16:9
    Frame rate : 23.976 fps
    Color space : YUV
    Chroma subsampling : 4:2:0
    Bit depth : 8 bits
    Scan type : Progressive
    Compression mode : Lossy
    Bits/(Pixel*Frame) : 0.141
    Stream size : 723 MiB (93%)
    Writing library : Intel(R) MPEG-4 encoder based on Intel(R) IPP 6.1 build 137.206.1.137.763

    Audio
    ID : 1
    Format : MPEG Audio
    Format version : Version 1
    Format profile : Layer 3
    Mode : Joint stereo
    Mode extension : MS Stereo
    Codec ID : 55
    Codec ID/Hint : MP3
    Duration : 50mn 29s
    Bit rate mode : Constant
    Bit rate : 128 Kbps
    Channel count : 2 channels
    Sampling rate : 44.1 KHz
    Compression mode : Lossy
    Stream size : 46.2 MiB (6%)
    Alignment : Aligned on interleaves
    Interleave, duration : 26 ms (0.63 video frame)
    Writing library : LAME3.98

    Скриншоты для ознакомления



    Размер скачиваемого торрента: 5.62 GB (6039570386 Bytes)

    Лютый (2013) WEBRip-AVC от GeneralFilm торрент скачать бесплатно
    загрузка...
    Рейтинг →
     (голосов: 1, оценка 4/5, голосовать можно 1 раз )

    Другие торренты по теме:

  • Лютый (2013) WEB-DL 1080p от Nikolspup скачать через торрент бесплатно
  • Лютый (2013) WEB-DL (720p) от Generalfilm скачать через торрент бесплатно
  • Лютый (2013) SATRip от GeneralFilm скачать через торрент бесплатно
  • Лютый (2013) WEB-DLRip скачать через торрент бесплатно


    • Комментарии (0):

      Информация

      Информация

        Посетители, находящиеся в группе Гости, не могут оставлять комментарии в данной новости.

        ↓ Меню



        ↓ Опрос

        А Вы добавили сайт в закладки?
        Да
        Не


        Top 10 за месяц (Фильмы)