.
Авторизация | Регистрация
» » Сверхъестественное / Supernatural (2013) WEBRip-AVC | LostFilm торрент скачать бесплатно




    Сверхъестественное / Supernatural (2013) WEBRip-AVC | LostFilm торрент скачать бесплатно

    Опубликовал: Админ | Дата: 27-02-2015, 11:09 | Просмотров: 342



    Детально о кино
    Русское название в мировом прокате: Supernatural
    Русское название: Сверхъестественное
    Создали в: 2013
    Категория жанра: ужасы, фэнтези, триллер, драма, детектив
    Главный режиссер: Филип Сгриккиа, Джеймс Л. Конуэй, Дженсен Эклс
    Актеры: Джаред Падалеки, Дженсен Эклс, Джим Бивер, Миша Коллинз, Джеффри Дин Морган, Женевьев Падалеки, Марк Шеппард, Синди Сэмпсон, Саманта Феррис, Митч Пилледжи

    Сюжет фильма: Сериал рассказывает о приключениях братьев Сэма и Дина Винчестеров, которые путешествуют по Соединённым Штатам на чёрном автомобиле Chevrolet Impala 1967 года, расследуют паранормальные явления, многие из которых основаны на американских городских легендах и фольклоре, и сражаются с порождениями зла, такими как демоны и призраки.

    Снималось в: США, Warner Bros. Television
    Время просмотра: 09 x ~00:43:00
    Перевод текста: Профессиональный (многоголосый) LostFilm
    Субтитры: отсутствуют

    Файл
    Качество фильма: WEBRip-AVC
    Информация о видео данные: AVI (DivX), 1024x576, 2000 kbps, 23.976 fps
    Информация о звуке данные: MPEG Layer 3, 2 ch, 128 kbps, 44.1 KHz
    Перевод текста: Не требуется

    MediaInfo

    General
    Complete name : Сверхъестественное 09х01 (2013) WEBRip-AVC LostFilm.avi
    Format : AVI
    Format/Info : Audio Video Interleave
    File size : 654 MiB
    Duration : 42mn 45s
    Overall bit rate : 2 139 Kbps

    Video
    ID : 0
    Format : MPEG-4 Visual
    Format settings, BVOP : Yes
    Format settings, QPel : No
    Format settings, GMC : No warppoints
    Format settings, Matrix : Default (H.263)
    Codec ID : DX50
    Codec ID/Hint : DivX 5
    Duration : 42mn 45s
    Bit rate : 1 995 Kbps
    Width : 1 024 pixels
    Height : 576 pixels
    Display aspect ratio : 16:9
    Frame rate : 23.976 fps
    Color space : YUV
    Chroma subsampling : 4:2:0
    Bit depth : 8 bits
    Scan type : Progressive
    Compression mode : Lossy
    Bits/(Pixel*Frame) : 0.141
    Stream size : 610 MiB (93%)
    Writing library : Intel(R) MPEG-4 encoder based on Intel(R) IPP 6.1 build 137.206.1.137.763

    Audio
    ID : 1
    Format : MPEG Audio
    Format version : Version 1
    Format profile : Layer 3
    Mode : Joint stereo
    Mode extension : MS Stereo
    Codec ID : 55
    Codec ID/Hint : MP3
    Duration : 42mn 45s
    Bit rate mode : Constant
    Bit rate : 128 Kbps
    Channel count : 2 channels
    Sampling rate : 44.1 KHz
    Compression mode : Lossy
    Stream size : 39.1 MiB (6%)
    Alignment : Aligned on interleaves
    Interleave, duration : 26 ms (0.63 video frame)
    Writing library : LAME3.98

    Скриншоты для ознакомления



    Список и описание серий

    01. Думаю, я здесь приживусь / I think I;m gonna like it here
    Дин в бешенстве, после того как Сэму становиться плохо, а врачи говорят, что он не выживет. В отчаянии Дин в молитве обращается ко всем ангелам с просьбой помочь его брату. В обмен на это Дин готов выполнить любую просьбу. Большинство ангелов очень злы на Дина и будут пытаться убить его, но один - Изакиэль - доберётся до Дина первым. Тем временем Сэм борется за свою жизнь, и для этого ему придётся столкнуться с несколькими, уже знакомыми нам, демонами. Кастиэль старается выжить в мире людей без ангельской силы.
    02. А нам всё равно / Devil May Care
    Дин приготовил подарок для Сэма и Кевина - Кроули в багажнике Импалы. Пока они пытаются отследить демонов на Земле, Аббадон продолжает свой план по захвату Ада. Но её план слишком коварный для братьев.
    03. Я не ангел / I;m No Angel
    Изакиэль говорит Винчестерам, что группа разъярённых ангелов гонится за Кастиэлем. Они, в свою очередь, быстро отправляются на поиски, пока ещё не поздно. Тем временем Кас продолжает осваивать жизнь обычного человека.
    04. В гостях у сказки / Slumber Party
    Винчестеры звонят Чарли, чтобы та помогла им с компьютерами в бункере Хранителей Знаний (тот, который светился, как новогодняя ёлка, когда ангелы упали с небес). Обнаруживается, что за одним из компьютеров находится ведьмовской мешочек, который открывает зелёные стены, ведущие в Страну Оз.
    05. Собачий полдень Дина / Dog Dean Afternoon
    В ходе расследования Сэм и Дин выясняют, что свидетелем двух жестоких убийств была немецкая овчарка. Желая узнать с какой нечистью они имеют дело на этот раз, Винчестеры находят заклинание, которое должно помочь Дину найти общий язык с собакой. К несчастью, у заклинания проявляется неожиданный побочный эффект.
    06. Небеса не могут ждать / Heaven Can;t Wait
    Кастиэль всё больше начинает привыкать к человеческой жизни и устраивается на работу в супермаркет. Однако он вскоре узнает о мистических исчезновениях людей и просит Дина расследовать это дело. Дин, понимая, что встреча с Кастиэлем может разоблачить его ложь, оставляет Сэма с Кевином.
    07. Плохие мальчишки / Bad Boys
    Дину звонит старый знакомый по имени Сонни и просит помочь в одном деле. Сонни владеет пристанищем для нарушивших закон подростков, Дин уже бывал у него в доме, когда воровал еду в молодости. Сэм в шоке от того, что никогда не знал об этой части прошлого своего брата и просит рассказать ему побольше, но Дин уклоняется от ответа.
    08. Между молотом и наковальней / Rock and a Hard Place
    Сэм и Дин вновь встречаются с шерифом Миллз. Шериф Миллз вызывает Сэма и Дина на помощь в расследовании серии убийств в её небольшом городке. Выясняется, что все четыре жертвы принадлежали к одной из групп воздержания в местной церкви, Сэм и Дин решают проникнуть в эту группу. Когда Дин внезапно исчезает, Сэм и шериф Миллз понимают, что Дина забрало то, за чем они охотятся, и объединяют усилия, чтобы его спасти.
    09. Holy Terror (дата выхода в оригинале - 3 декабря 2013)
    Война Ангелов началась - Сэм и Дин прибывают на место, где произошла массовая резня между ангелами, и случайно натыкаются там на Кастиэля. Во время расследования бойни, Кастиэль оказывается в плену и подвергается пыткам. Тем временем Дин задаётся вопросом, каковы на самом деле требования Изакиэля, и не пришло ли время рассказать правду Сэму.

    Размер скачиваемого торрента: 5.72 GB (6143193074 Bytes)

    Сверхъестественное / Supernatural (2013) WEBRip-AVC | LostFilm торрент скачать бесплатно
    загрузка...
    Рейтинг →
     (голосов: 1, оценка 4/5, голосовать можно 1 раз )

    Другие торренты по теме:



      Комментарии (0):

      Информация

      Информация

        Посетители, находящиеся в группе Гости, не могут оставлять комментарии в данной новости.

        ↓ Меню



        ↓ Опрос

        А Вы добавили сайт в закладки?
        Да
        Не


        Top 10 за неделю (Фильмы)