.
Авторизация | Регистрация
Хочешь лучшие торренты? Добавь свой email!
Добавить
» » Стрела / Arrow (2013) WEBRip-AVC | BaibaKo торрент скачать бесплатно




    Стрела / Arrow (2013) WEBRip-AVC | BaibaKo торрент скачать бесплатно

    Опубликовал: Админ | Дата: 27-02-2015, 11:09 | Просмотров: 282



    Детально о кино
    Русское название: Стрела
    Русское название в мировом прокате: Arrow
    Создали в: 2013
    Категория жанра: Фантастическая драма, детективный боевик, фантастические приключения, комикс
    Снималось в: США, Berlanti Productions, Berlanti Television, DC Entertainment, DC Entertainment, Warner Bros. Television
    Главный режиссер: Дэвид Баррет, Дэвид Наттер
    Актеры: Стивен Амелл, Кэти Кэссиди, Колин Доннелл, Дэвид Рэмси, Уилла Холлэнд, Сюзанна Томпсон, Пол Блекторн, Колин Сэлмон, Эмили Бетт Рикардс, Энни Айлонзех, Себастьян Данн, Байрон Манн, Роджер Р. Кросс, Мэррет Грин, Ли Винсент, Джон Барроумен, Лесли Ивен

    Сюжет фильма: Избалованный плейбой Оливер Квин, считавшийся погибшим в кораблекрушении вместе с отцом и девушкой, на самом деле пять лет выживал на затерянном острове в Тихом океане, где пересмотрел свой взгляд на жизнь. За это время мир сильно изменился: его мать вышла замуж за нового владельца империи Квинов, младшая сестра подсела на наркотики, а бывшая девушка стала встречаться с лучшим другом Томми Мерлином. Вернувшись к цивилизации, Оливер решил избавить родной город от преступности, создав неуловимого лучника Стрелу.

    Файл
    Качество фильма: WEBRip-AVC
    Информация о видео данные: 1024x576, AVI (DivX), 2000 kbps, 23.976 fps
    Информация о звуке данные: MPEG Layer 3, 2 ch, 128 kbps, 44.1 KHz
    Перевод текста: Профессиональный многоголосый БайбаКо
    Время просмотра: ~00:43:00

    MediaInfo

    General
    Complete name : Стрела Arrow 02х01 (2013) WEBRip-AVC.avi
    Format : AVI
    Format/Info : Audio Video Interleave
    File size : 652 MiB
    Duration : 42mn 36s
    Overall bit rate : 2 141 Kbps

    Video
    ID : 0
    Format : MPEG-4 Visual
    Format settings, BVOP : Yes
    Format settings, QPel : No
    Format settings, GMC : No warppoints
    Format settings, Matrix : Default (H.263)
    Codec ID : DX50
    Codec ID/Hint : DivX 5
    Duration : 42mn 36s
    Bit rate : 1 997 Kbps
    Width : 1 024 pixels
    Height : 576 pixels
    Display aspect ratio : 16:9
    Frame rate : 23.976 fps
    Color space : YUV
    Chroma subsampling : 4:2:0
    Bit depth : 8 bits
    Scan type : Progressive
    Compression mode : Lossy
    Bits/(Pixel*Frame) : 0.141
    Stream size : 609 MiB (93%)
    Writing library : Intel(R) MPEG-4 encoder based on Intel(R) IPP 6.1 build 137.206.1.137.763

    Audio
    ID : 1
    Format : MPEG Audio
    Format version : Version 1
    Format profile : Layer 3
    Mode : Joint stereo
    Mode extension : MS Stereo
    Codec ID : 55
    Codec ID/Hint : MP3
    Duration : 42mn 36s
    Bit rate mode : Constant
    Bit rate : 128 Kbps
    Channel count : 2 channels
    Sampling rate : 44.1 KHz
    Compression mode : Lossy
    Stream size : 39.0 MiB (6%)
    Alignment : Aligned on interleaves
    Interleave, duration : 26 ms (0.63 video frame)
    Writing library : LAME3.98

    Скриншоты для ознакомления



    Размер скачиваемого торрента: 5.10 GB (5477479124 Bytes)

    Стрела / Arrow (2013) WEBRip-AVC | BaibaKo торрент скачать бесплатно
    загрузка...
    Рейтинг →
     (голосов: 1, оценка 5/5, голосовать можно 1 раз )

    Другие торренты по теме:

  • Стрела / Arrow (2012) WEB-DL 1080p | NewStudio
  • Сломанная стрела / Broken Arrow (1996) НDRip | P
  • Стивенсон Роберт Льюис - Черная Стрела (2010) МРЗ
  • Стивенсон Роберт Льюис - Черная стрела (2012) MP3
  • Стрела. Абсолютное оружие / Choi-jong-byeong-gi Hwal (2011) BDRip-AVC от potroks | Ю.Сербин
  • Серебряная стрела / Silver Streak (1976) HDTVRip-AVC от Тorrent-Хzona
  • Огонь и стрела / The Flame and the Arrow (1950) DVDRip-AVC от Тorrent-Хzona
  • Стрела / Arrow (2013) HDTVRip 720p | Kerob скачать через торрент бесплатно


    • Комментарии (0):

      Информация

      Информация

        Посетители, находящиеся в группе Гости, не могут оставлять комментарии в данной новости.

        ↓ Меню



        ↓ Опрос

        А Вы добавили сайт в закладки?
        Да
        Не


        Top 10 за месяц (Фильмы)