.
Авторизация | Регистрация
Хочешь лучшие торренты? Добавь свой email!
Добавить
» » Полицейская академия 4: Граждане в дозоре / Police Academy 4: Citizens on Patrol (1987) BDRip 720p от MediaClub | D, P, A скачать через торрент бесплатно




    Полицейская академия 4: Граждане в дозоре / Police Academy 4: Citizens on Patrol (1987) BDRip 720p от MediaClub | D, P, A скачать через торрент бесплатно

    Опубликовал: Админ | Дата: 27-02-2015, 11:09 | Просмотров: 358



    Детально о кино
    Русское название: Полицейская академия 4: Граждане в дозоре
    Русское название в мировом прокате: Police Academy 4: Citizens on Patrol
    Создали в: 1987
    Категория жанра: Комедия, криминал
    Главный режиссер: Джим Дрейк
    Актеры: Стив Гуттенберг, Бубба Смит, Майкл Уинслоу, Дэвид Граф, Тим Казурински, Шэрон Стоун, Лесли Истербрук, Мэрион Рэмси, Лэнс Кинси, Боб Голдтуэйт, Джордж Гейнс, Дерек МакГрат, Скотт Томсон, Билли Бёрд, Джордж Р. Робертсон, Брайан Точи, Брайан Бэкер, Дэвид Спейд, Таб Такер, Коринн Борер, Рэндал Текс Кобб, Майкл МакМэнус, Коллин Кэмп, Эндрю Пэрис, Артур Батанидес, Джеки Джозеф, Арни Хардт, Фрэнк Канино, Боб Лем, Франсуа Кланфер, Харви Чао, Мишель Дюке, Джек Крили, Тед Симонетт, Кэй Хоутри, Сид Гулд, Меган Смит, Дон Ричи, Румми Бишоп, Кэролин Скотт, Марк Леджер, Ларри Шварц, Джеймс Кэрролл, Брент Майерс, Майкл Роу

    Сюжет фильма:
    Упрямый и предприимчивый Лассард решает усилить безопасность на улице с помощью создания добровольных дружин под названием Граждане на дежурстве. Угадайте, кто будет инструктировать обывателей? Верно, те же выпускники академии, что принимали неуд в своих зачетках за отличные отметки. Когда конкурент, лейтенант Харрис, наблюдает за этими упражнениями, он решает использовать их для дискредитации Академии. Но наши герои сложили свои коэффициенты умственного развития и поднялись в воздух на бипланах и воздушных шарах: кто-то должен спасать положение!



    Снималось в: США, Warner Bros. Pictures
    Время просмотра: 01:27:17
    Перевод текста: Дублированный, профессиональный многоголосый, профессиональный двухголосый, авторский

    Файл
    Кодек для видео: x264
    Качество фильма: BDRip 720p
    Информация о видео: MPEG-4 AVC, 7450 Кбит/с, 1280x720, 23.976 кадр/с
    Информация о звуке #1: Русский (AC3, 1 ch, 192 Кбит/с) / Дублированный
    Информация о звуке #2: Русский (AC3, 1 ch, 192 Кбит/с) / Профессиональный двухголосый (НТВ)
    Информация о звуке #3: Русский (AC3, 1 ch, 192 Кбит/с) / Профессиональный многоголосый
    Информация о звуке #4: Русский (AC3, 1 ch, 192 Кбит/с) / Профессиональный многоголосый (Россия)
    Информация о звуке #5: Русский (AC3, 1 ch, 192 Кбит/с) / Авторский одноголосый (Гаврилов)
    Информация о звуке #6: Английский ( DTS, 1 ch, 755 Кбит/с)
    Субтитры: Английские

    Семпл

    MI
    x264 info: frame I:142 Avg QP:17.37 size:123863
    x264 info: frame P:1746 Avg QP:19.05 size: 67582
    x264 info: frame B:5662 Avg QP:20.52 size: 27208

    =============================================

    Format : Matroska
    Format version : Version 4 / Version 2
    File size : 5.60 GiB
    Duration : 1h 27mn
    Overall bit rate : 9 180 Kbps
    Movie name : -=MediaClub - Odessit=-
    Encoded date : UTC 2013-12-10 10:32:23
    Writing application : mkvmerge v6.2.0 (;Promised Land;) built on Apr 28 2013 12:22:01
    Writing library : libebml v1.3.0 libmatroska v1.4.0

    Video
    ID : 1
    Format : AVC
    Format/Info : Advanced Video Codec
    Format profile : High@L4.1
    Format settings, CABAC : Yes
    Format settings, ReFrames : 9 frames
    Codec ID : V_MPEG4/ISO/AVC
    Duration : 1h 27mn
    Bit rate : 7 450 Kbps
    Width : 1 280 pixels
    Height : 720 pixels
    Display aspect ratio : 16:9
    Frame rate : 23.976 fps
    Color space : YUV
    Chroma subsampling : 4:2:0
    Bit depth : 8 bits
    Scan type : Progressive
    Bits/(Pixel*Frame) : 0.337
    Stream size : 4.44 GiB (79%)
    Writing library : x264 core 130 r2273 b3065e6
    Encoding settings : cabac=1 / ref=9 / deblock=1:-3:-3 / analyse=0x3:0x133 / me=umh / subme=11 / psy=1 / psy_rd=1.00:0.20 / mixed_ref=1 / me_range=48 / chroma_me=1 / trellis=2 / 8x8dct=1 / cqm=0 / deadzone=21,11 / fast_pskip=0 / chroma_qp_offset=-3 / threads=6 / lookahead_threads=1 / sliced_threads=0 / nr=0 / decimate=0 / interlaced=0 / bluray_compat=0 / constrained_intra=0 / bframes=10 / b_pyramid=2 / b_adapt=2 / b_bias=0 / direct=3 / weightb=1 / open_gop=0 / weightp=2 / keyint=240 / keyint_min=23 / scenecut=40 / intra_refresh=0 / rc=2pass / mbtree=0 / bitrate=7450 / ratetol=1.0 / qcomp=0.60 / qpmin=0 / qpmax=69 / qpstep=4 / cplxblur=20.0 / qblur=0.5 / ip_ratio=1.40 / pb_ratio=1.30 / aq=1:1.00
    Language : English

    Audio #1
    ID : 2
    Format : AC-3
    Format/Info : Audio Coding 3
    Mode extension : CM (complete main)
    Codec ID : A_AC3
    Duration : 1h 27mn
    Bit rate mode : Constant
    Bit rate : 192 Kbps
    Channel(s) : 1 channel
    Channel positions : Front: C
    Sampling rate : 48.0 KHz
    Bit depth : 16 bits
    Compression mode : Lossy
    Stream size : 120 MiB (2%)
    Title : Дублированный
    Language : Russian

    Audio #2
    ID : 3
    Format : AC-3
    Format/Info : Audio Coding 3
    Mode extension : CM (complete main)
    Codec ID : A_AC3
    Duration : 1h 27mn
    Bit rate mode : Constant
    Bit rate : 192 Kbps
    Channel(s) : 1 channel
    Channel positions : Front: C
    Sampling rate : 48.0 KHz
    Bit depth : 16 bits
    Compression mode : Lossy
    Stream size : 120 MiB (2%)
    Title : Профессиональный двухголосый (НТВ)
    Language : Russian

    Audio #3
    ID : 4
    Format : AC-3
    Format/Info : Audio Coding 3
    Mode extension : CM (complete main)
    Codec ID : A_AC3
    Duration : 1h 27mn
    Bit rate mode : Constant
    Bit rate : 192 Kbps
    Channel(s) : 1 channel
    Channel positions : Front: C
    Sampling rate : 48.0 KHz
    Bit depth : 16 bits
    Compression mode : Lossy
    Stream size : 120 MiB (2%)
    Title : Профессиональный многоголосый
    Language : Russian

    Audio #4
    ID : 5
    Format : AC-3
    Format/Info : Audio Coding 3
    Mode extension : CM (complete main)
    Codec ID : A_AC3
    Duration : 1h 27mn
    Bit rate mode : Constant
    Bit rate : 192 Kbps
    Channel(s) : 1 channel
    Channel positions : Front: C
    Sampling rate : 48.0 KHz
    Bit depth : 16 bits
    Compression mode : Lossy
    Stream size : 120 MiB (2%)
    Title : Профессиональный многоголосый (Россия)
    Language : Russian

    Audio #5
    ID : 6
    Format : AC-3
    Format/Info : Audio Coding 3
    Mode extension : CM (complete main)
    Codec ID : A_AC3
    Duration : 1h 27mn
    Bit rate mode : Constant
    Bit rate : 192 Kbps
    Channel(s) : 1 channel
    Channel positions : Front: C
    Sampling rate : 48.0 KHz
    Bit depth : 16 bits
    Compression mode : Lossy
    Stream size : 120 MiB (2%)
    Title : Авторский одноголосый (Гаврилов)
    Language : Russian

    Audio #6
    ID : 7
    Format : DTS
    Format/Info : Digital Theater Systems
    Codec ID : A_DTS
    Duration : 1h 27mn
    Bit rate mode : Constant
    Bit rate : 755 Kbps
    Channel(s) : 1 channel
    Channel positions : Front: C
    Sampling rate : 48.0 KHz
    Bit depth : 24 bits
    Compression mode : Lossy
    Stream size : 471 MiB (8%)
    Language : English

    Text
    ID : 8
    Format : UTF-8
    Codec ID : S_TEXT/UTF8
    Codec ID/Info : UTF-8 Plain Text
    Language : English

    Menu
    00:00:00.000 : en:C.O.P. (Credits)
    00:07:20.982 : en:Poetry Slam
    00:10:18.784 : en:Pass the Punch
    00:12:34.211 : en:Skate Punks
    00:16:18.310 : en:Ketchup, Catch Up!
    00:21:11.436 : en:Community Service
    00:23:21.358 : en:Old Recruits
    00:28:12.023 : en:Target Acquired
    00:32:54.931 : en:Water Safety
    00:36:16.674 : en:Use Deodorant
    00:40:40.354 : en:Captain Effeminate
    00:44:02.306 : en:Johnny on the Spot
    00:48:00.460 : en:Scaring the Rookies
    00:53:48.183 : en:Party Megaphone
    00:56:33.264 : en:Photo Opportunity
    00:58:52.904 : en:Ambassadors
    01:00:39.594 : en:Citizen;s Arrest
    01:03:23.132 : en:Simon Says
    01:05:22.168 : en:Calling All Units
    01:08:05.706 : en:Ninja Pirates
    01:10:38.734 : en:Flying Circus
    01:21:35.640 : en:End Credits

    Скриншоты для ознакомления


    Релиз подготовил: |
    Размер скачиваемого торрента: 5.60 GB (6010428716 Bytes)

    Полицейская академия 4: Граждане в дозоре / Police Academy 4: Citizens on Patrol (1987) BDRip 720p от MediaClub | D, P, A скачать через торрент бесплатно
    загрузка...
    Рейтинг →
     (голосов: 1, оценка 4/5, голосовать можно 1 раз )

    Другие торренты по теме:

  • Полицейская академия 2: Их первое задание / Police Academy 2: Their First Assignment (1985) HDRip от Scarabey | D
  • Полицейская академия 3: Переподготовка / Police Academy 3: Back in Training (1986) BDRip 1080р | D, P, A от Freeisland
  • Полицейская академия 4: Граждане в дозоре / Police Academy 4: Citizens on Patrol (1987) BDRip 1080р | D, P, A от Freeisland скачать через торрент бесплатно
  • Полицейская академия 5: Место назначения – Майами Бич / Police Academy 5: Assignment: Miami Beach (1988) BDRip 1080р | D, P, A от Freeisland скачать через торрент бесплатно
  • Полицейская академия 3: Переподготовка / Police Academy 3: Back in Training (1986) BDRip 720p от MediaClub | D, P, A
  • Полицейская академия 6: Город в осаде / Police Academy 6: City Under Siege (1989) BDRip 1080р | D, P, A от Freeisland
  • Полицейская академия 5: Место назначения - Майами Бич / Police Academy 5: Assignment: Miami Beach (1988) BDRip 720p от MediaClub | D, P, A
  • Полицейская академия 7: Миссия в Москве / Police Academy 7: Mission to Moscow (1994) BDRip 1080р | P, A от Freeisland


    • Комментарии (0):

      Информация

      Информация

        Посетители, находящиеся в группе Гости, не могут оставлять комментарии в данной новости.

        ↓ Меню



        ↓ Опрос

        А Вы добавили сайт в закладки?
        Да
        Не


        Top 10 за месяц (Фильмы)