.
Авторизация | Регистрация
Хочешь лучшие торренты? Добавь свой email!
Добавить
» » Король Техаса / King of Texas (2002) BDRip-AVC от MediaClub | P2 торрент скачать бесплатно




    Король Техаса / King of Texas (2002) BDRip-AVC от MediaClub | P2 торрент скачать бесплатно

    Опубликовал: Админ | Дата: 27-02-2015, 11:09 | Просмотров: 262



    Детально о кино
    Русское название: Король Техаса
    Русское название в мировом прокате: King of Texas
    Создали в: 2002
    Категория жанра: Вестерн, драма
    Главный режиссер: Ули Эдель
    Актеры: Патрик Стюарт, Лорен Холли, Рой Шайдер, Патрик Берджин, Марсия Гэй Харден, Стивен Бауэр

    Сюжет фильма:
    Наследство Джона Лира - его империя, построенная на земле Техаса, которой он правит, не стесняясь в выборе средств. Решив разделить свои владения между тремя дочерьми - Клодией, Сюзанной и Ребеккой - Джон ставит одно условие: наследство получат лишь доказавшие свою любовь к отцу. Сюзанна и Ребекка готовы пойти на любой обман, чтобы обеспечить себе будущее. А Клодия, осмелившаяся сказать правду, изгоняется из дома. Но ее изгнание лишь разжигает огонь вражды. Завладев имуществом отца, вероломные Сюзанна и Ребекка тут же выгоняют его в дикие прерии. Узнав, что такое предательство, сражаясь с непредсказуемыми силами природы и подосланными убийцами, Джон примиряется с Клодией. Но грехи отца уже пали на головы его дочерей... Да, вы угадали: король Лир и вестерн! Интригующе!..



    Снималось в: США / Flying Freehold Productions, Hallmark Entertainment, Turner Network Television (TNT)
    Время просмотра: 01:31:14
    Перевод текста: Профессиональный двухголосый

    Файл
    Кодек для видео: x264
    Качество фильма: BDRip-AVC
    Информация о видео: MPEG-4 AVC, 3500 Кбит/с, 1024x576, 25.000 кадр/с
    Информация о звуке: Русский, английский (AC3, 2 ch, 192 Кбит/с)

    Семпл

    MI
    x264 info: frame I:1274 Avg QP:16.01 size: 82872
    x264 info: frame P:31080 Avg QP:19.10 size: 31513
    x264 info: frame B:104495 Avg QP:20.73 size: 12528

    Format : Matroska
    Format version : Version 4 / Version 2
    File size : 2.48 GiB
    Duration : 1h 31mn
    Overall bit rate : 3 885 Kbps
    Movie name : -=MediaClub - Odessit=-
    Encoded date : UTC 2013-12-11 13:11:00
    Writing application : mkvmerge v6.1.0 (;Old Devil;) built on Mar 4 2013 09:10:42
    Writing library : libebml v1.3.0 libmatroska v1.4.0

    Video
    ID : 1
    Format : AVC
    Format/Info : Advanced Video Codec
    Format profile : High@L4.1
    Format settings, CABAC : Yes
    Format settings, ReFrames : 8 frames
    Codec ID : V_MPEG4/ISO/AVC
    Duration : 1h 31mn
    Bit rate : 3 500 Kbps
    Width : 1 024 pixels
    Height : 576 pixels
    Display aspect ratio : 16:9
    Frame rate : 25.000 fps
    Color space : YUV
    Chroma subsampling : 4:2:0
    Bit depth : 8 bits
    Scan type : Progressive
    Bits/(Pixel*Frame) : 0.237
    Stream size : 2.18 GiB (88%)
    Writing library : x264 core 130 r2273 b3065e6
    Encoding settings : cabac=1 / ref=8 / deblock=1:-3:-3 / analyse=0x3:0x133 / me=umh / subme=11 / psy=1 / psy_rd=1.00:0.20 / mixed_ref=1 / me_range=48 / chroma_me=1 / trellis=2 / 8x8dct=1 / cqm=0 / deadzone=21,11 / fast_pskip=0 / chroma_qp_offset=-3 / threads=6 / lookahead_threads=1 / sliced_threads=0 / nr=0 / decimate=0 / interlaced=0 / bluray_compat=0 / constrained_intra=0 / bframes=10 / b_pyramid=2 / b_adapt=2 / b_bias=0 / direct=3 / weightb=1 / open_gop=0 / weightp=2 / keyint=240 / keyint_min=24 / scenecut=40 / intra_refresh=0 / rc=2pass / mbtree=0 / bitrate=3500 / ratetol=1.0 / qcomp=0.60 / qpmin=0 / qpmax=69 / qpstep=4 / cplxblur=20.0 / qblur=0.5 / ip_ratio=1.40 / pb_ratio=1.30 / aq=1:1.00
    Language : English

    Audio #1
    ID : 2
    Format : AC-3
    Format/Info : Audio Coding 3
    Mode extension : CM (complete main)
    Codec ID : A_AC3
    Duration : 1h 31mn
    Bit rate mode : Constant
    Bit rate : 192 Kbps
    Channel(s) : 2 channels
    Channel positions : Front: L R
    Sampling rate : 48.0 KHz
    Bit depth : 16 bits
    Compression mode : Lossy
    Stream size : 125 MiB (5%)
    Title : Профессиональный (двухголосый)
    Language : Russian

    Audio #2
    ID : 3
    Format : AC-3
    Format/Info : Audio Coding 3
    Mode extension : CM (complete main)
    Codec ID : A_AC3
    Duration : 1h 31mn
    Bit rate mode : Constant
    Bit rate : 192 Kbps
    Channel(s) : 2 channels
    Channel positions : Front: L R
    Sampling rate : 48.0 KHz
    Bit depth : 16 bits
    Compression mode : Lossy
    Stream size : 125 MiB (5%)
    Language : English

    Menu
    00:00:00.000 : :Chapter 01
    00:05:00.000 : :Chapter 02
    00:10:00.000 : :Chapter 03
    00:15:00.000 : :Chapter 04
    00:20:00.000 : :Chapter 05
    00:25:00.000 : :Chapter 06
    00:30:00.000 : :Chapter 07
    00:35:00.000 : :Chapter 08
    00:40:00.000 : :Chapter 09
    00:45:00.000 : :Chapter 10
    00:50:00.000 : :Chapter 11
    00:55:00.000 : :Chapter 12
    01:00:00.000 : :Chapter 13
    01:05:00.000 : :Chapter 14
    01:10:00.000 : :Chapter 15
    01:15:00.000 : :Chapter 16
    01:20:00.000 : :Chapter 17
    01:25:00.000 : :Chapter 18
    01:30:00.000 : :Chapter 19

    О релизе
    За постер спасибо: Media-Art-Club
    Синхронизация звука kaspr

    Скриншоты для ознакомления


    Релиз подготовил: |
    Размер скачиваемого торрента: 2.48 GB (2658293619 Bytes)

    Король Техаса / King of Texas (2002) BDRip-AVC от MediaClub | P2 торрент скачать бесплатно
    загрузка...
    Рейтинг →
     (голосов: 1, оценка 5/5, голосовать можно 1 раз )

    Другие торренты по теме:

  • Король Техаса / King of Texas (2002) HDRip от Leon-masl скачать через торрент бесплатно


    • Комментарии (0):

      Информация

      Информация

        Посетители, находящиеся в группе Гости, не могут оставлять комментарии в данной новости.

        ↓ Меню



        ↓ Опрос

        А Вы добавили сайт в закладки?
        Да
        Не


        Top 10 за месяц (Фильмы)