.
Авторизация | Регистрация
Хочешь лучшие торренты? Добавь свой email!
Добавить
» » Во имя справедливости / Out for Justice (1991) BDRip 1080p by msltel | D, P, P2, A торрент скачать бесплатно




    Во имя справедливости / Out for Justice (1991) BDRip 1080p by msltel | D, P, P2, A торрент скачать бесплатно

    Опубликовал: Админ | Дата: 27-02-2015, 11:09 | Просмотров: 289



    Русское название: Во имя справедливости
    Русское название в мировом прокате: Out for Justice
    Создали в: 1991
    Категория жанра: Боевик, триллер, драма, криминал
    Снималось в: США, Warner Bros. Pictures
    Главный режиссер: Джон Флинн
    Актеры: Стивен Сигал, Уильям Форсайт, Джерри Орбах, Джо Чампа, Шэрин Митчелл, Сэл Ричардс, Джина Гершон, Джей Аковоне, Ник Корелло, Роберт ЛаСардо, Джон Тоулс-Бей, Джо Спатаро, Рон Брумбилоу, Джэк Чиполла, Чик Дэниел, Джон Сенгер, Стив Тейлор, Джулиус Нассо мл., Дайан Петерсон, Эд Дику, Винсент Нассо, Джерри Стривелли, Джером Альварадо, Дэвид Басальто, Дэнни Иглоуиц, Фрэнк Фагилла Мл., Сэл Сирафино Томасетти, Джанни Руссо, Рональд Макконе, Алан Билор, Джордж Вальехо, Карл Киарфалио, Эдвард Корн, Бенедетто Бонджорно, Энтони ДеСандо, Доминик Кьянезе

    Сюжет фильма: Место действия — Бруклин, время — наши дни. Полицейский Джино Фелино родился и вырос здесь. На его веку многое изменилось, но некоторые перемены он признавать не собирается. Товарищ по детским играм теперь — на другой стороне. Он превратил местные улицы в зоны боевых действий. Сильнее всего на свете Джино желал бы отправить этого сорвавшегося с цепи пса в школу вечного послушания. Но сначала его нужно поймать.

    Качество фильма: BDRip 1080p
    Размер скачиваемого торрента: 8.93 ГБ
    Время просмотра: 01:31:24

    Информация о видео: MPEG-4 AVC, 10.3 Mбит/с, 1908x798
    Информация о звуке 1: русский, 48 kHz, AC3, 6 ch, 448 kbps avg, Дублированный, Мост Видео
    Информация о звуке 2: русский, 48 kHz, AC3, 2 ch, 192 kbps avg, Профессиональный многоголосый, ТК Россия
    Информация о звуке 3: русский, 48 kHz, AC3, 2 ch, 192 kbps avg, Профессиональный двухголосый, НТВ
    Информация о звуке 4: русский, 48 kHz, AC3, 6 ch, 384 kbps avg, Авторский, Андрей Гаврилов
    Информация о звуке 5: русский, 48 kHz, AC3, 2 ch, 192 kbps avg, Авторский, Юрий Живов
    Информация о звуке 6: русский, 48 kHz, AC3, 2 ch, 192 kbps avg, Авторский, Алексей Михалёв
    Информация о звуке 7: русский, 48 kHz, AC3, 6 ch, 384 kbps avg, Авторский, Дмитирй Пучков - Гоблин, с ненормативной лексикой

    Внешние файлы
    Информация о звуке: русский, 48 kHz, AC3, 2 ch, 224 kbps avg, Дублированный, Варус Видео
    Информация о звуке: украинский, 48 kHz, AC3, 2 ch, 192 kbps avg, Профессиональный многоголосый, ICTV
    Информация о звуке: украинский, 48 kHz, AC3, 2 ch, 192 kbps avg, Профессиональный многоголосый, Inter
    Информация о звуке: русский, 48 kHz, AC3, 2 ch, 192 kbps avg, Профессиональный двухголосый, Студия (1 1)
    Информация о звуке: английский, 48 kHz, AC3, 6 ch, 640 kbps avg, Оригинал
    Субтитры: русские
    Субтитры: английские

    Имеются поименованные главы/чаптеры.

    Исходники: RealAmbal (Рутрекер), 0ptimus (Кинозал) (в части звукодорожек)

    Сравнение с исходником



    MediaInfo Лог х264
    Общее
    Полное имя : E:VideoVo.imja.spravedlivosti.1991.x264.BDRip.1080pVo.imja.spravedlivosti.1991.DUB.rus.Варус видео.ac3
    Формат : AC-3
    Формат/Информация : Audio Coding 3
    Размер файла : 146 Мбайт
    Продолжительность : 1 ч. 31 м.
    Режим общего битрейта : Постоянный
    Общий поток : 224 Кбит/сек

    Аудио
    Формат : AC-3
    Формат/Информация : Audio Coding 3
    Расширение режима : CM (complete main)
    Параметр Endianness формата : Big
    Продолжительность : 1 ч. 31 м.
    Вид битрейта : Постоянный
    Битрейт : 224 Кбит/сек
    Каналы : 2 канала
    Расположение каналов : Front: L R
    Частота : 48,0 КГц
    Битовая глубина : 16 бит
    Метод сжатия : С потерями
    Размер потока : 146 Мбайт (100%)

    Общее
    Полное имя : E:VideoVo.imja.spravedlivosti.1991.x264.BDRip.1080pVo.imja.spravedlivosti.1991.DVO.ukr.Студия (1 1).ac3
    Формат : AC-3
    Формат/Информация : Audio Coding 3
    Размер файла : 126 Мбайт
    Продолжительность : 1 ч. 31 м.
    Режим общего битрейта : Постоянный
    Общий поток : 192 Кбит/сек

    Аудио
    Формат : AC-3
    Формат/Информация : Audio Coding 3
    Расширение режима : CM (complete main)
    Параметр Endianness формата : Big
    Продолжительность : 1 ч. 31 м.
    Вид битрейта : Постоянный
    Битрейт : 192 Кбит/сек
    Каналы : 2 канала
    Расположение каналов : Front: L R
    Частота : 48,0 КГц
    Битовая глубина : 16 бит
    Метод сжатия : С потерями
    Размер потока : 126 Мбайт (100%)

    Общее
    Полное имя : E:VideoVo.imja.spravedlivosti.1991.x264.BDRip.1080pVo.imja.spravedlivosti.1991.eng.srt
    Формат : SubRip
    Размер файла : 66,8 Кбайт

    Текст
    Формат : SubRip
    Метод сжатия : Без потерь

    Общее
    Полное имя : E:VideoVo.imja.spravedlivosti.1991.x264.BDRip.1080pVo.imja.spravedlivosti.1991.MVO.ukr.ICTV.ac3
    Формат : AC-3
    Формат/Информация : Audio Coding 3
    Размер файла : 126 Мбайт
    Продолжительность : 1 ч. 31 м.
    Режим общего битрейта : Постоянный
    Общий поток : 192 Кбит/сек

    Аудио
    Формат : AC-3
    Формат/Информация : Audio Coding 3
    Расширение режима : CM (complete main)
    Параметр Endianness формата : Big
    Продолжительность : 1 ч. 31 м.
    Вид битрейта : Постоянный
    Битрейт : 192 Кбит/сек
    Каналы : 2 канала
    Расположение каналов : Front: L R
    Частота : 48,0 КГц
    Битовая глубина : 16 бит
    Метод сжатия : С потерями
    Размер потока : 126 Мбайт (100%)

    Общее
    Полное имя : E:VideoVo.imja.spravedlivosti.1991.x264.BDRip.1080pVo.imja.spravedlivosti.1991.MVO.ukr.Inter.ac3
    Формат : AC-3
    Формат/Информация : Audio Coding 3
    Размер файла : 126 Мбайт
    Продолжительность : 1 ч. 31 м.
    Режим общего битрейта : Постоянный
    Общий поток : 192 Кбит/сек

    Аудио
    Формат : AC-3
    Формат/Информация : Audio Coding 3
    Расширение режима : CM (complete main)
    Параметр Endianness формата : Big
    Продолжительность : 1 ч. 31 м.
    Вид битрейта : Постоянный
    Битрейт : 192 Кбит/сек
    Каналы : 2 канала
    Расположение каналов : Front: L R
    Частота : 48,0 КГц
    Битовая глубина : 16 бит
    Метод сжатия : С потерями
    Размер потока : 126 Мбайт (100%)

    Общее
    Полное имя : E:VideoVo.imja.spravedlivosti.1991.x264.BDRip.1080pVo.imja.spravedlivosti.1991.Original.eng.ac3
    Формат : AC-3
    Формат/Информация : Audio Coding 3
    Размер файла : 418 Мбайт
    Продолжительность : 1 ч. 31 м.
    Режим общего битрейта : Постоянный
    Общий поток : 640 Кбит/сек

    Аудио
    Формат : AC-3
    Формат/Информация : Audio Coding 3
    Расширение режима : CM (complete main)
    Параметр Endianness формата : Big
    Продолжительность : 1 ч. 31 м.
    Вид битрейта : Постоянный
    Битрейт : 640 Кбит/сек
    Каналы : 6 каналов
    Расположение каналов : Front: L C R, Side: L R, LFE
    Частота : 48,0 КГц
    Битовая глубина : 16 бит
    Метод сжатия : С потерями
    Размер потока : 418 Мбайт (100%)

    Общее
    Полное имя : E:VideoVo.imja.spravedlivosti.1991.x264.BDRip.1080pVo.imja.spravedlivosti.1991.rus.srt
    Формат : SubRip
    Размер файла : 82,1 Кбайт

    Текст
    Формат : SubRip
    Метод сжатия : Без потерь

    Общее
    Уникальный идентификатор : 174680062298270234948964723179827959026 (0x836A2801194C354BA803C275A2CB14F2)
    Полное имя : E:VideoVo.imja.spravedlivosti.1991.x264.BDRip.1080pVo.imja.spravedlivosti.1991.x264.BDRip.1080p.mkv
    Формат : Matroska
    Версия формата : Version 4 / Version 2
    Размер файла : 8,01 Гбайт
    Продолжительность : 1 ч. 31 м.
    Общий поток : 12,5 Мбит/сек
    Название фильма : Во имя справедливости / Out for Justice / 1991 / BDRip == STarankov
    Дата кодирования : UTC 2013-12-11 09:50:06
    Программа кодирования : mkvmerge v6.6.0 (;The Edge Of The In Between;) built on Dec 1 2013 17:55:00
    Библиотека кодирования : libebml v1.3.0 libmatroska v1.4.1

    Видео
    Идентификатор : 1
    Формат : AVC
    Формат/Информация : Advanced Video Codec
    Профиль формата : High@L4.1
    Параметр CABAC формата : Да
    Параметр ReFrames формата : 5 кадров
    Идентификатор кодека : V_MPEG4/ISO/AVC
    Продолжительность : 1 ч. 31 м.
    Битрейт : 10,3 Мбит/сек
    Ширина : 1908 пикселей
    Высота : 798 пикселей
    Соотношение сторон : 2,40:1
    Режим частоты кадров : Постоянный
    Частота кадров : 23,976 кадра/сек
    Цветовое пространство : YUV
    Субдискретизация насыщенности : 4:2:0
    Битовая глубина : 8 бит
    Тип развёртки : Прогрессивная
    Бит/(Пиксели*Кадры) : 0.283
    Размер потока : 6,59 Гбайт (82%)
    Библиотека кодирования : x264 core 138 r2358 9e941d1
    Залил: msltel
    Размер скачиваемого торрента: 8.93 GB (9589435993 Bytes)


    Во имя справедливости / Out for Justice (1991) BDRip 1080p by msltel | D, P, P2, A торрент скачать бесплатно
    загрузка...
    Рейтинг →
     (голосов: 1, оценка 5/5, голосовать можно 1 раз )

    Другие торренты по теме:



      Комментарии (0):

      Информация

      Информация

        Посетители, находящиеся в группе Гости, не могут оставлять комментарии в данной новости.

        ↓ Меню



        ↓ Опрос

        А Вы добавили сайт в закладки?
        Да
        Не


        Top 10 за месяц (Фильмы)