.
Авторизация | Регистрация
Хочешь лучшие торренты? Добавь свой email!
Добавить
» » Перевозчик: Трилогия / The Transporter: Trilogy (2002-2008) BDRip-AVC | D скачать через торрент бесплатно




    Перевозчик: Трилогия / The Transporter: Trilogy (2002-2008) BDRip-AVC | D скачать через торрент бесплатно

    Опубликовал: Админ | Дата: 27-02-2015, 11:09 | Просмотров: 374



    Детально о кино
    Русское название: Перевозчик
    Русское название в мировом прокате: The Transporter
    Создали в: 2002
    Категория жанра: боевик, триллер, криминал
    Главный режиссер: Кори Юэнь
    Актеры: Джейсон Стэйтем, Шу Ци, Мэтт Шульце, Франсуа Берлеан, Рик Янг, Даг Рэнд, Дидье Сен Мелен, Тони Десканвелль, Лорен Деспонд, Маттье Альбертини

    Сюжет фильма:
    Бывший десантник Фрэнк Мартин имеет неплохой бизнес — перевозит любые грузы по французскому Средиземноморью и делает свою работу быстро и качественно. Недостатка в клиентах нет, ведь, он всегда неукоснительно соблюдает три правила: не меняет условий сделки, не спрашивает никаких имен и никогда не заглядывает в багаж. Но однажды, перевозя груз клиента по имени Уолл Стрит, Фрэнк обнаруживает, что мешок шевелится. Впервые за все время Мартин нарушает правило, заглядывает внутрь пакета и обнаруживает там красивую женщину, которая оказывается дочерью видного китайского мафиози…



    Снималось в: CША, Франция
    Время просмотра: 01:32:09
    Перевод текста: Профессиональный (полное дублирование)

    Файл
    Кодек для видео: h.264
    Качество фильма: BDRip-AVC
    Информация о видео: 1024x436, ~3500 kbps, 23,976 fps
    Информация о звуке 1: AC3, 6 ch, ~448 kbps (Русский)
    Информация о звуке 2: AC3, 6 ch, ~448 kbps (Английский)
    Субтитры: Английский
    Медиаинфо
    Общее
    Уникальный идентификатор : 176875840506457920193240115534959816913 (0x85110C3A755B7CB8BD5CC7BEC8B930D1)
    Полное имя : C:Perevozchik.2002.x264.BDRip.(AVC)-AVCurtain.mkv
    Формат : Matroska
    Размер файла : 2,83 Гбайт
    Продолжительность : 1 ч. 32 м.
    Общий поток : 4394 Кбит/сек
    Дата кодирования : UTC 2012-04-23 16:23:16
    Программа кодирования : mkvmerge v3.3.0 (;Language;) built on Mar 24 2010 14:59:24
    Библиотека кодирования : libebml v0.8.0 libmatroska v0.9.0

    Видео
    Идентификатор : 1
    Формат : AVC
    Формат/Информация : Advanced Video Codec
    Профиль формата : High@L4.1
    Параметр CABAC формата : Да
    Параметр ReFrames формата : 8 кадров
    Идентификатор кодека : V_MPEG4/ISO/AVC
    Продолжительность : 1 ч. 32 м.
    Битрейт : 3500 Кбит/сек
    Ширина : 1024 пикс.
    Высота : 436 пикс.
    Соотношение сторон : 2,35:1
    Частота кадров : 23,976 кадр/сек
    Цветовое пространство : YUV
    Подвыборка цветности : 4:2:0
    Битовая глубина : 8 бит
    Тип развёртки : Прогрессивная
    Бит/(Пиксели*Кадры) : 0.327
    Размер потока : 2,20 Гбайт (78%)
    Библиотека кодирования : x264 core 118 r2085 8a62835
    Настройки программы : cabac=1 / ref=8 / deblock=1:-2:-2 / analyse=0x3:0x133 / me=umh / subme=11 / psy=1 / psy_rd=0.90:0.00 / mixed_ref=1 / me_range=48 / chroma_me=1 / trellis=2 / 8x8dct=1 / cqm=0 / deadzone=21,11 / fast_pskip=0 / chroma_qp_offset=-2 / threads=6 / sliced_threads=0 / nr=0 / decimate=1 / interlaced=0 / bluray_compat=0 / constrained_intra=0 / bframes=6 / b_pyramid=2 / b_adapt=2 / b_bias=0 / direct=3 / weightb=1 / open_gop=0 / weightp=2 / keyint=240 / keyint_min=22 / scenecut=40 / intra_refresh=0 / rc=2pass / mbtree=0 / bitrate=3500 / ratetol=1.0 / qcomp=0.60 / qpmin=10 / qpmax=51 / qpstep=4 / cplxblur=20.0 / qblur=0.5 / ip_ratio=1.40 / pb_ratio=1.30 / aq=1:1.00
    Язык : English

    Аудио #1
    Идентификатор : 2
    Формат : AC-3
    Формат/Информация : Audio Coding 3
    Расширение режима : CM (complete main)
    Идентификатор кодека : A_AC3
    Продолжительность : 1 ч. 32 м.
    Вид битрейта : Постоянный
    Битрейт : 448 Кбит/сек
    Каналы : 6 каналов
    Расположение каналов : Front: L C R, Side: L R, LFE
    Частота : 48,0 КГц
    Битовая глубина : 16 бит
    Метод сжатия : С потерями
    Размер потока : 295 Мбайт (10%)
    Заголовок : Дубляж
    Язык : Russian

    Аудио #2
    Идентификатор : 3
    Формат : AC-3
    Формат/Информация : Audio Coding 3
    Расширение режима : CM (complete main)
    Идентификатор кодека : A_AC3
    Продолжительность : 1 ч. 32 м.
    Вид битрейта : Постоянный
    Битрейт : 448 Кбит/сек
    Каналы : 6 каналов
    Расположение каналов : Front: L C R, Side: L R, LFE
    Частота : 48,0 КГц
    Битовая глубина : 16 бит
    Метод сжатия : С потерями
    Размер потока : 295 Мбайт (10%)
    Язык : English

    Текст
    Идентификатор : 4
    Формат : UTF-8
    Идентификатор кодека : S_TEXT/UTF8
    Идентификатор кодека/Информация : UTF-8 Plain Text
    Язык : English
    Скриншоты для ознакомления



    Детально о кино
    Русское название: Перевозчик 2
    Русское название в мировом прокате: The Transporter 2
    Создали в: 2005
    Категория жанра: боевик, триллер, криминал
    Главный режиссер: Луи Летерье
    Актеры: Джейсон Стэйтем, Алессандро Гассман, Эмбер Валлетта, Кейт Наута, Мэттью Модайн, Джейсон Флеминг, Кит Дэвид, Хантер Клэри, Шеннон Бриггс, Франсуа Берлеан
    Сюжет фильма:
    Бывший сотрудник спецподразделения Фрэнк Мартин, известный также как Перевозчик, уходит от дел и поселяется в Майами, где устраивается шофером в богатую семью. С маленьким сыном этого семейства у него завязываются дружеские отношения. Когда же мальчика похищают, Мартину приходится использовать свои профессиональные навыки, чтобы вернуть парнишку в целости и сохранности, а также раскрыть зловещий план похитителя…



    Снималось в: CША, Франция
    Время просмотра: 01:27:38
    Перевод текста: Профессиональный (полное дублирование)

    Файл
    Кодек для видео: h.264
    Качество фильма: BDRip-AVC
    Информация о видео: 1024x438, ~3500 kbps, 23,976 fps
    Информация о звуке 1: AC3, 6 ch, ~448 kbps (Русский)
    Информация о звуке 2: AC3, 6 ch, ~448 kbps (Английский)
    Субтитры: Русский, Английский
    Медиаинфо
    Общее
    Уникальный идентификатор : 191120128524131859833485807297977013346 (0x8FC865D97EFCC4D59EC92DB3D37A5462)
    Полное имя : C:Perevozchik.2.2005.x264.BDRip.(AVC)-AVCurtain.mkv
    Формат : Matroska
    Размер файла : 2,69 Гбайт
    Продолжительность : 1 ч. 27 м.
    Общий поток : 4395 Кбит/сек
    Дата кодирования : UTC 2012-04-25 07:35:30
    Программа кодирования : mkvmerge v3.3.0 (;Language;) built on Mar 24 2010 14:59:24
    Библиотека кодирования : libebml v0.8.0 libmatroska v0.9.0

    Видео
    Идентификатор : 1
    Формат : AVC
    Формат/Информация : Advanced Video Codec
    Профиль формата : High@L4.1
    Параметр CABAC формата : Да
    Параметр ReFrames формата : 8 кадров
    Идентификатор кодека : V_MPEG4/ISO/AVC
    Продолжительность : 1 ч. 27 м.
    Битрейт : 3500 Кбит/сек
    Ширина : 1024 пикс.
    Высота : 438 пикс.
    Соотношение сторон : 2,35:1
    Частота кадров : 23,976 кадр/сек
    Цветовое пространство : YUV
    Подвыборка цветности : 4:2:0
    Битовая глубина : 8 бит
    Тип развёртки : Прогрессивная
    Бит/(Пиксели*Кадры) : 0.325
    Размер потока : 2,09 Гбайт (78%)
    Библиотека кодирования : x264 core 118 r2085 8a62835
    Настройки программы : cabac=1 / ref=8 / deblock=1:-2:-2 / analyse=0x3:0x133 / me=umh / subme=11 / psy=1 / psy_rd=0.90:0.00 / mixed_ref=1 / me_range=48 / chroma_me=1 / trellis=2 / 8x8dct=1 / cqm=0 / deadzone=21,11 / fast_pskip=0 / chroma_qp_offset=-2 / threads=6 / sliced_threads=0 / nr=0 / decimate=1 / interlaced=0 / bluray_compat=0 / constrained_intra=0 / bframes=6 / b_pyramid=2 / b_adapt=2 / b_bias=0 / direct=3 / weightb=1 / open_gop=0 / weightp=2 / keyint=240 / keyint_min=22 / scenecut=40 / intra_refresh=0 / rc=2pass / mbtree=0 / bitrate=3500 / ratetol=1.0 / qcomp=0.60 / qpmin=10 / qpmax=51 / qpstep=4 / cplxblur=20.0 / qblur=0.5 / ip_ratio=1.40 / pb_ratio=1.30 / aq=1:1.00
    Язык : English

    Аудио #1
    Идентификатор : 2
    Формат : AC-3
    Формат/Информация : Audio Coding 3
    Расширение режима : CM (complete main)
    Идентификатор кодека : A_AC3
    Продолжительность : 1 ч. 27 м.
    Вид битрейта : Постоянный
    Битрейт : 448 Кбит/сек
    Каналы : 6 каналов
    Расположение каналов : Front: L C R, Side: L R, LFE
    Частота : 48,0 КГц
    Битовая глубина : 16 бит
    Метод сжатия : С потерями
    Размер потока : 281 Мбайт (10%)
    Заголовок : Дубляж
    Язык : Russian

    Аудио #2
    Идентификатор : 3
    Формат : AC-3
    Формат/Информация : Audio Coding 3
    Расширение режима : CM (complete main)
    Идентификатор кодека : A_AC3
    Продолжительность : 1 ч. 27 м.
    Вид битрейта : Постоянный
    Битрейт : 448 Кбит/сек
    Каналы : 6 каналов
    Расположение каналов : Front: L C R, Side: L R, LFE
    Частота : 48,0 КГц
    Битовая глубина : 16 бит
    Метод сжатия : С потерями
    Размер потока : 281 Мбайт (10%)
    Язык : English

    Текст #1
    Идентификатор : 4
    Формат : UTF-8
    Идентификатор кодека : S_TEXT/UTF8
    Идентификатор кодека/Информация : UTF-8 Plain Text
    Язык : Russian

    Текст #2
    Идентификатор : 5
    Формат : UTF-8
    Идентификатор кодека : S_TEXT/UTF8
    Идентификатор кодека/Информация : UTF-8 Plain Text
    Язык : Russian

    Текст #3
    Идентификатор : 6
    Формат : UTF-8
    Идентификатор кодека : S_TEXT/UTF8
    Идентификатор кодека/Информация : UTF-8 Plain Text
    Язык : English
    Скриншоты для ознакомления



    Детально о кино
    Русское название: Перевозчик 3
    Русское название в мировом прокате: The Transporter 3
    Создали в: 2008
    Категория жанра: боевик, триллер, криминал
    Главный режиссер: Оливье Мегатон
    Актеры: Джейсон Стэйтем, Наталья Рудакова, Франсуа Берлеан, Роберт Неппер, Ерун Краббе, Алекс Коболд, Дэвид Атракчи, Ян Сандберг, Эрик Эбони, Дэвид Камменос

    Сюжет фильма:
    После своих последних приключений в Майами, Фрэнк Мартин решил поменять работу перевозчика на спокойную и уединенную жизнь во французской Ривьере. Но его планам не суждено было сбыться, когда к нему обратился бывший солдат из отряда Дельта Йонас Джонсон. Он рассказал, что по заказу корпорации Ecocorp, занимающейся переработкой и утилизацией отходов, похищена Валентина — дочь украинского министра по охране окружающей среды Леонида Фазилева — чтобы путем вымогательства получить официальное разрешение для утилизации ядовитых отходов в Украине. Теперь задача героя — доставить Валентину через Европу в Одессу. Чтобы обеспечить выполнение задания, Джонсон одевает Фрэнку и Валентине электронные браслеты, которые могут взорваться, если их обладатели удаляются на 20 метров от автомобиля. Выполняя это задание, главному герою придется столкнуться с новыми опасностями, которые связаны не только с его заказом…



    Снималось в: CША, Франция, Великобритания
    Время просмотра: 01:43:34
    Перевод текста: Профессиональный (полное дублирование)

    Файл
    Кодек для видео: h.264
    Качество фильма: BDRip-AVC
    Информация о видео: 1024x436, ~3500 kbps, 23,976 fps
    Информация о звуке 1: AC3, 6 ch, ~448 kbps (Русский)
    Информация о звуке 2: AC3, 6 ch, ~448 kbps (Английский)
    Субтитры: Русский, Английский
    Медиаинфо
    Общее
    Уникальный идентификатор : 213839278831662060415403330784641108494 (0xA0DFF271229FE8438153197DA81F4A0E)
    Полное имя : C:Perevozchik.3.2008.x264.BDRip.(AVC)-AVCurtain.mkv
    Формат : Matroska
    Размер файла : 3,18 Гбайт
    Продолжительность : 1 ч. 43 м.
    Общий поток : 4392 Кбит/сек
    Дата кодирования : UTC 2012-04-25 10:33:48
    Программа кодирования : mkvmerge v3.3.0 (;Language;) built on Mar 24 2010 14:59:24
    Библиотека кодирования : libebml v0.8.0 libmatroska v0.9.0

    Видео
    Идентификатор : 1
    Формат : AVC
    Формат/Информация : Advanced Video Codec
    Профиль формата : High@L4.1
    Параметр CABAC формата : Да
    Параметр ReFrames формата : 8 кадров
    Идентификатор кодека : V_MPEG4/ISO/AVC
    Продолжительность : 1 ч. 43 м.
    Битрейт : 3500 Кбит/сек
    Ширина : 1024 пикс.
    Высота : 436 пикс.
    Соотношение сторон : 2,35:1
    Частота кадров : 23,976 кадр/сек
    Цветовое пространство : YUV
    Подвыборка цветности : 4:2:0
    Битовая глубина : 8 бит
    Тип развёртки : Прогрессивная
    Бит/(Пиксели*Кадры) : 0.327
    Размер потока : 2,47 Гбайт (78%)
    Библиотека кодирования : x264 core 118 r2085 8a62835
    Настройки программы : cabac=1 / ref=8 / deblock=1:-2:-2 / analyse=0x3:0x133 / me=umh / subme=11 / psy=1 / psy_rd=0.90:0.00 / mixed_ref=1 / me_range=48 / chroma_me=1 / trellis=2 / 8x8dct=1 / cqm=0 / deadzone=21,11 / fast_pskip=0 / chroma_qp_offset=-2 / threads=6 / sliced_threads=0 / nr=0 / decimate=1 / interlaced=0 / bluray_compat=0 / constrained_intra=0 / bframes=6 / b_pyramid=2 / b_adapt=2 / b_bias=0 / direct=3 / weightb=1 / open_gop=0 / weightp=2 / keyint=240 / keyint_min=22 / scenecut=40 / intra_refresh=0 / rc=2pass / mbtree=0 / bitrate=3500 / ratetol=1.0 / qcomp=0.60 / qpmin=10 / qpmax=51 / qpstep=4 / cplxblur=20.0 / qblur=0.5 / ip_ratio=1.40 / pb_ratio=1.30 / aq=1:1.00
    Язык : English

    Аудио #1
    Идентификатор : 2
    Формат : AC-3
    Формат/Информация : Audio Coding 3
    Расширение режима : CM (complete main)
    Идентификатор кодека : A_AC3
    Продолжительность : 1 ч. 43 м.
    Вид битрейта : Постоянный
    Битрейт : 448 Кбит/сек
    Каналы : 6 каналов
    Расположение каналов : Front: L C R, Side: L R, LFE
    Частота : 48,0 КГц
    Битовая глубина : 16 бит
    Метод сжатия : С потерями
    Размер потока : 332 Мбайт (10%)
    Заголовок : Дубляж
    Язык : Russian

    Аудио #2
    Идентификатор : 3
    Формат : AC-3
    Формат/Информация : Audio Coding 3
    Расширение режима : CM (complete main)
    Идентификатор кодека : A_AC3
    Продолжительность : 1 ч. 43 м.
    Вид битрейта : Постоянный
    Битрейт : 448 Кбит/сек
    Каналы : 6 каналов
    Расположение каналов : Front: L C R, Side: L R, LFE
    Частота : 48,0 КГц
    Битовая глубина : 16 бит
    Метод сжатия : С потерями
    Размер потока : 332 Мбайт (10%)
    Язык : English

    Текст #1
    Идентификатор : 4
    Формат : UTF-8
    Идентификатор кодека : S_TEXT/UTF8
    Идентификатор кодека/Информация : UTF-8 Plain Text
    Язык : Russian

    Текст #2
    Идентификатор : 5
    Формат : UTF-8
    Идентификатор кодека : S_TEXT/UTF8
    Идентификатор кодека/Информация : UTF-8 Plain Text
    Язык : English
    Скриншоты для ознакомления

    Релиз подготовил:
    Размер скачиваемого торрента: 8.70 GB (9337640930 Bytes)

    Перевозчик: Трилогия / The Transporter: Trilogy (2002-2008) BDRip-AVC | D скачать через торрент бесплатно
    загрузка...
    Рейтинг →
     (голосов: 1, оценка 3/5, голосовать можно 1 раз )

    Другие торренты по теме:

  • Перевозчик: Трилогия / Transporter: Trilogy (2002-2008) BDRip-AVC | D


    • Комментарии (0):

      Информация

      Информация

        Посетители, находящиеся в группе Гости, не могут оставлять комментарии в данной новости.

        ↓ Меню



        ↓ Опрос

        А Вы добавили сайт в закладки?
        Да
        Не


        Top 10 за месяц (Фильмы)