.
Авторизация | Регистрация
» » Рождественский Купидон / Christmas Cupid (2010) DVDRip от R.G Rupeer скачать через торрент бесплатно




    Рождественский Купидон / Christmas Cupid (2010) DVDRip от R.G Rupeer скачать через торрент бесплатно

    Опубликовал: Админ | Дата: 27-02-2015, 11:09 | Просмотров: 407

    Рождественский Купидон / Christmas Cupid



    Снималось в: США
    Создали в: 2010
    Категория жанра: Фэнтези, Комедия, Семейный
    Время просмотра: 01:25:22
    Перевод текста: Полное дублирование Примечание: Отсутствует несколько минут перевода

    Главный режиссер: Джил Джангер

    Актеры: Кристина Милиан, Эшли Бенсон, Джеки Гарри, Бургесс Дженкинс, Эшли Джонсон

    Сюжет: Главная героиня, Слоан Спенсер, — влиятельный голливудский рекламщик, которую начинает преследовать призрак ее клиентки Кейтлин. За несколько дней до Рождества, Кейтлин и Слоан отправляются в путешествие во времени и встречают парней Слоан из прошлого, настоящего и будущего. Это странствие должно помочь ей обрести настоящую любовь.



    от R.G:

    Качество фильма: DVDRip
    Тип видео: AVI
    Кодек для видео: XviD
    Информация о видео: 640x360, (16:9), 23,976 fps, ~ 1575 Кбит/сек Качество видео не самое лучшее
    Информация о звуке: 44,1 kHz, AC-3, 2 ch (L,R), ~ 192 Кбит/сек

    MediaInfo

    Общее
    Полное имя : D:TORRENTSChristmas.Cupid.2010.DVDRip.XviD-rupeer.avi
    Формат : AVI
    Формат/Информация : Audio Video Interleave
    Размер файла : 1,06 Гбайт
    Продолжительность : 1 ч. 25 м.
    Общий поток : 1776 Кбит/сек
    Программа кодирования : Lavf52.39.1
    Библиотека кодирования : VirtualDub build 35390/release

    Видео
    Идентификатор : 0
    Формат : xvid
    Идентификатор кодека : xvid
    Продолжительность : 1 ч. 25 м.
    Битрейт : 1575 Кбит/сек
    Ширина : 640 пикс.
    Высота : 360 пикс.
    Соотношение сторон : 16:9
    Частота кадров : 23,976 кадр/сек
    Бит/(Пиксели*Кадры) : 0.285
    Размер потока : 962 Мбайт (89%)

    Аудио
    Идентификатор : 1
    Формат : AC-3
    Формат/Информация : Audio Coding 3
    Расширение режима : CM (complete main)
    Идентификатор кодека : 2000
    Продолжительность : 1 ч. 25 м.
    Вид битрейта : Постоянный
    Битрейт : 192 Кбит/сек
    Канал(ы) : 2 канала(ов)
    Расположение каналов : Front: L R
    Частота : 44,1 КГц
    Битовая глубина : 16 бит
    Метод сжатия : С потерями
    Задержка видео : 1 с. 916 мс.
    Размер потока : 117 Мбайт (11%)
    Выравнивание : Соединение по промежуткам
    Продолжительность промежутка : 42 мс. (1,00 видеокадр)
    Время предзагрузки промежутка : 522 ms

    Скриншоты для ознакомления
    align=center /align

    Залил: ivangord
    Размер скачиваемого торрента: 1.06 GB (1137206210 Bytes)

    Рождественский Купидон / Christmas Cupid (2010) DVDRip от R.G Rupeer скачать через торрент бесплатно
    загрузка...
    Рейтинг →
     (голосов: 1, оценка 5/5, голосовать можно 1 раз )

    Другие торренты по теме:



      Комментарии (0):

      Информация

      Информация

        Посетители, находящиеся в группе Гости, не могут оставлять комментарии в данной новости.

        ↓ Меню



        ↓ Опрос

        А Вы добавили сайт в закладки?
        Да
        Не


        Top 10 за неделю (Фильмы)