.
Авторизация | Регистрация
Хочешь лучшие торренты? Добавь свой email!
Добавить
» » Грязь / Filth (2013) DVDRip-AVC | Гоблин, D скачать через торрент бесплатно




    Грязь / Filth (2013) DVDRip-AVC | Гоблин, D скачать через торрент бесплатно

    Опубликовал: Админ | Дата: 27-02-2015, 11:09 | Просмотров: 570



    Детально о кино
    Русское название: Грязь
    Русское название в мировом прокате: Filth
    Создали в: 2013
    Категория жанра: драма, комедия, криминал
    Главный режиссер: Джон С. Бейрд
    Актеры: Джеймс МакЭвой, Джейми Белл, Джим Бродбент, Имоджен Путс, Йен де Кестекер, Джоанн Фроггатт, Иман Эллиотт, Ширли Хендерсон, Эдди Марсан, Мартин Компстон

    Сюжет фильма: Главный герой — продажный шотландский полицейский Брюс Робертсон, помешанный на сексе и кокаине. Ему бы надо расследовать убийство, но ему сильно мешают собственные странности, привычка разыгрывать коллег и беготня за девушками. За Робертсоном присматривают его напарник Рэй Леннокс и начальник Боб Тоал.



    Снималось в: Великобритания
    Время просмотра: 01:33:35
    Тип перевода: Авторское (одноголосое) Дмитрий Гоблин Пучков звук с TS / Дублированное лицензия

    Файл
    Тип видео: MKV
    Качество фильма: DVDRip-AVC Рип с DVD9
    Информация о видео: 1842 kb/s, 1024x440
    Информация о звуке: Russian Гоблин: AC3, 192 kb/s (2 ch) / Russain Dub: AC3, 384 kb/s (6 ch)

    Семпл





    MI

    Format : Matroska
    Format version : Version 4 / Version 2
    File size : 1.58 GiB
    Duration : 1h 33mn
    Overall bit rate : 2 418 Kbps
    Encoded date : UTC 2013-12-12 10:50:30
    Writing application : mkvmerge v6.1.0 (;Old Devil;) built on Mar 4 2013 09:10:42
    Writing library : libebml v1.3.0 libmatroska v1.4.0

    Video
    ID : 1
    Format : AVC
    Format/Info : Advanced Video Codec
    Format profile : High@L4.1
    Format settings, CABAC : Yes
    Format settings, ReFrames : 10 frames
    Codec ID : V_MPEG4/ISO/AVC
    Duration : 1h 33mn
    Bit rate : 1 842 Kbps
    Width : 1 024 pixels
    Height : 440 pixels
    Display aspect ratio : 2.35:1
    Frame rate : 25.000 fps
    Color space : YUV
    Chroma subsampling : 4:2:0
    Bit depth : 8 bits
    Scan type : Progressive
    Bits/(Pixel*Frame) : 0.164
    Stream size : 1.17 GiB (74%)
    Writing library : x264 core 130 r2273 b3065e6
    Encoding settings : cabac=1 / ref=10 / deblock=1:-3:-3 / analyse=0x3:0x133 / me=umh / subme=11 / psy=1 / psy_rd=1.00:0.20 / mixed_ref=1 / me_range=32 / chroma_me=1 / trellis=2 / 8x8dct=1 / cqm=0 / deadzone=21,11 / fast_pskip=0 / chroma_qp_offset=-3 / threads=12 / lookahead_threads=2 / sliced_threads=0 / nr=0 / decimate=0 / interlaced=0 / bluray_compat=0 / constrained_intra=0 / bframes=8 / b_pyramid=2 / b_adapt=2 / b_bias=0 / direct=3 / weightb=1 / open_gop=0 / weightp=2 / keyint=250 / keyint_min=25 / scenecut=40 / intra_refresh=0 / rc=2pass / mbtree=0 / bitrate=1842 / ratetol=1.0 / qcomp=0.60 / qpmin=0 / qpmax=69 / qpstep=4 / cplxblur=20.0 / qblur=0.5 / ip_ratio=1.40 / pb_ratio=1.30 / aq=1:1.00
    Language : English
    Default : Yes
    Forced : No

    Audio #1
    ID : 2
    Format : AC-3
    Format/Info : Audio Coding 3
    Mode extension : CM (complete main)
    Format settings, Endianness : Big
    Codec ID : A_AC3
    Duration : 1h 33mn
    Bit rate mode : Constant
    Bit rate : 192 Kbps
    Channel(s) : 2 channels
    Channel positions : Front: L R
    Sampling rate : 48.0 KHz
    Bit depth : 16 bits
    Compression mode : Lossy
    Stream size : 129 MiB (8%)
    Title : Goblin
    Language : Russian
    Default : Yes
    Forced : No

    Audio #2
    ID : 3
    Format : AC-3
    Format/Info : Audio Coding 3
    Mode extension : CM (complete main)
    Format settings, Endianness : Big
    Codec ID : A_AC3
    Duration : 1h 33mn
    Bit rate mode : Constant
    Bit rate : 384 Kbps
    Channel(s) : 6 channels
    Channel positions : Front: L C R, Side: L R, LFE
    Sampling rate : 48.0 KHz
    Bit depth : 16 bits
    Compression mode : Lossy
    Stream size : 257 MiB (16%)
    Title : Dub
    Language : Russian
    Default : No
    Forced : No
    Скриншоты для ознакомления

    Размер скачиваемого торрента: 1.58 GB (1697381940 Bytes)

    Грязь / Filth (2013) DVDRip-AVC | Гоблин, D скачать через торрент бесплатно
    загрузка...
    Рейтинг →
     (голосов: 1, оценка 5/5, голосовать можно 1 раз )

    Другие торренты по теме:



      Комментарии (0):

      Информация

      Информация

        Посетители, находящиеся в группе Гости, не могут оставлять комментарии в данной новости.

        ↓ Меню



        ↓ Опрос

        А Вы добавили сайт в закладки?
        Да
        Не


        Top 10 за месяц (Фильмы)