.
Авторизация | Регистрация
Хочешь лучшие торренты? Добавь свой email!
Добавить
» » Ва-банк / Vabank (1981) HDTVRip от New-Team торрент скачать бесплатно




    Ва-банк / Vabank (1981) HDTVRip от New-Team торрент скачать бесплатно

    Опубликовал: Админ | Дата: 27-02-2015, 11:09 | Просмотров: 394


    Снималось в: Польша
    Создали в: Zespol Filmowy Kadr
    Категория жанра: комедия
    Создали в: 1981
    Время просмотра: 01:44:38

    Перевод текста: Профессиональный (Двухголосый закадровый) (Мастер Тэйп)
    Оригинальная аудиодорожка: нет
    Субтитры подготовлены: нет

    Главный режиссер: Юлиуш Махульский / Juliusz Machulski

    Актеры:
    Ян Махульский, Леонард Петрашак, Витольд Пыркош, Эва Шикульска, Кжиштоф Кершновски, Здзислав Кузьняр, Юзеф Пара, Elzbieta Zajac?wna, Яцек Хмельник, Зофиа Харевич...

    Сюжет:
    Варшава, октябрь 1934 года. 49-летний широко известный в криминальных кругах медвежатник по имени Хенрик Квинто выходит из тюрьмы, в которой провёл последние шесть лет. У ворот Квинто с шампанским торжественно встречают два юных восторженных почитателя его криминального таланта — двоюродные братья Мокс и Нута, мечтающие заполучить легендарного взломщика сейфов Квинто в партнёры, тем более что им в начале фильма ловко удалось ограбить ювелирный магазин. Хенрик абсолютно сбивает их с толку, демонстрируя мундштук от музыкальной трубы, уверяя в своей полной непричастности к славе легендарного грабителя банков. Сбитые с толку братья на всякий случай сообщают герою адрес автомастерской, в которой он может их найти, если пан Музыкант захочет сыграть с ними вместе…



    Исходник: HDTV 720p
    Тип релиза: HDTVRip
    Контейнер: AVI

    Информация о видео: 656x368 (16:9), 25 fps, XviD ~ 859 kbps avg, 0.142 bit/pixel
    Информация о звуке: 48 kHz, MP3 2.0, 128 kbps

    Раздача от:
    MediaInfo

    Общее
    Полное имя : Vabank.1981.HDTVDRip-745_New-team_by_AVP_Studio.avi
    Формат : AVI
    Формат/Информация : Audio Video Interleave
    Размер файла : 746 Мбайт
    Продолжительность : 1 ч. 44 м.
    Общий поток : 997 Кбит/сек
    Программа кодирования : VirtualDubModRus 1.5.10.2 (build 2542/release)
    Библиотека кодирования : VirtualDubMod build 2542/release

    Видео
    Идентификатор : 0
    Формат : MPEG-4 Visual
    Профиль формата : Advanced Simple@L5
    Параметр BVOP формата : 1
    Параметр QPel формата : Нет
    Параметр GMC формата : Без точки перехода
    Параметр матрицы формата : Выборочная
    Идентификатор кодека : XVID
    Идентификатор кодека/Подсказка : XviD
    Продолжительность : 1 ч. 44 м.
    Битрейт : 859 Кбит/сек
    Ширина : 656 пикселей
    Высота : 368 пикселей
    Соотношение сторон : 16:9
    Частота кадров : 25,000 кадров/сек
    Цветовое пространство : YUV
    Субдискретизация насыщенности : 4:2:0
    Битовая глубина : 8 бит
    Тип развёртки : Прогрессивная
    Метод сжатия : С потерями
    Бит/(Пиксели*Кадры) : 0.142
    Размер потока : 643 Мбайт (86%)
    Библиотека кодирования : XviD 73

    Аудио
    Идентификатор : 1
    Формат : MPEG Audio
    Версия формата : Version 1
    Профиль формата : Layer 3
    Идентификатор кодека : 55
    Идентификатор кодека/Подсказка : MP3
    Продолжительность : 1 ч. 44 м.
    Вид битрейта : Постоянный
    Битрейт : 128 Кбит/сек
    Каналы : 2 канала
    Частота : 48,0 КГц
    Метод сжатия : С потерями
    Размер потока : 95,8 Мбайт (13%)
    Выравнивание : Соединение по промежуткам
    Продолжительность промежутка : 40 мс. (1,00 видеокадр)
    Время предзагрузки промежутка : 504 мс.
    Библиотека кодирования : LAME3.99r
    Залил: AVPStudio
    Размер скачиваемого торрента: 745.81 MB (782034944 Bytes)


    Ва-банк / Vabank (1981) HDTVRip от New-Team торрент скачать бесплатно
    загрузка...
    Рейтинг →
     (голосов: 1, оценка 4/5, голосовать можно 1 раз )

    Другие торренты по теме:

  • Ва-банк-хит - Магнитоальбом (1993) FLAC скачать через торрент бесплатно
  • Ва-банк II, или Ответный удар / Vabank II czyli riposta (1984) HDTVRip от New-Team скачать через торрент бесплатно
  • Ва-банк / Vabank (1981) HDTVRip-AVC от New-Team скачать через торрент бесплатно
  • Винчи, или Ва-банк 3 / Vinci (2004) DVDRip от New-Team
  • Ва-банк II, или Ответный удар / Vabank II czyli riposta (1984) HDTVRip-AVC от New-Team
  • Винчи, или Ва-банк 3 / Vinci (2004) DVDRip-AVC от New-Team скачать через торрент бесплатно
  • Ва-банк: Дилогия / Vabank: Dilogy (1981-1984) HDTVRip 720p скачать через торрент бесплатно
  • Ва-банк 2, или Ответный удар / Vabank II, czyli riposta (1984) HDTVRip-AVC от New-Team | D


    • Комментарии (0):

      Информация

      Информация

        Посетители, находящиеся в группе Гости, не могут оставлять комментарии в данной новости.

        ↓ Меню



        ↓ Опрос

        А Вы добавили сайт в закладки?
        Да
        Не


        Top 10 за месяц (Фильмы)